Лазурный берег / By the Sea (Анджелина Джоли / Angelina Jolie) [2015, США, Франция, драма, мелодрама, BDRip-AVC] Dub + Original Eng + Sub (Rus, Eng)

Reply to topic
 
Author
Message

Satyr ®

Gender: Unknown

Longevity: 11 years

Posts: 15401

Reputation: 55 [+] [-]

Satyr · Post 20-Feb-2017 21:25

[Quote] 

Лазурный берег / By the Sea- Страна: США, Франция
Жанр: драма, мелодрама
Год выпуска: 2015
Продолжительность: 02:02:12
Перевод: Профессиональный (дублированный)
Cубтитры: русские, английские
Оригинальная аудиодорожка: английский
Режиссер: Анджелина Джоли / Angelina Jolie
В ролях: Брэд Питт, Анджелина Джоли, Мелани Лоран, Мельвиль Пупо, Нильс Ареструп, Ришар Боренже, Марика Грин, Сара Науди, Альдо Бонтемпо, Филипп Мартине
Описание: Франция. Середина 1970-х. Ванесса, бывшая танцовщица, и ее муж Роланд, американский писатель, путешествуют вместе по стране. Понемногу они начинают отдаляться друг от друга, но все меняется, когда они задерживаются в одном тихом приморском городке.
Сэмпл: http://sendfile.su/1310077

Качество видео: BDRip-AVC (By.the.Sea.2015.BDREMUX.1080p.ExKinoRay)
Формат видео: MKV
Видео: x264, 1152x480 (2.40:1) 23.976 fps, ~1511 kbps, 0,114 bit/pixel
Аудио 1: 48 kHz, AC3 Dolby Digital, 3/2 (L,C,R,l,r) + LFE ch, ~448 kbps [русский]
Аудио 2: 48 kHz, AC3 Dolby Digital, 3/2 (L,C,R,l,r) + LFE ch, ~448 kbps [английский]
Формат субтитров: softsub (SRT)

MediaInfo

General
Unique ID : 170195457042643734834535423648008435118 (0x800A73E4EA248D7498A01AD7ED6AF5AE)
Format : Matroska
Format version : Version 4 / Version 2
File size : 2.05 GiB
Duration : 2h 2mn
Overall bit rate : 2 406 Kbps
Encoded date : UTC 2017-02-18 08:24:44
Writing application : mkvmerge v9.8.0 ('Kuglblids') 64bit
Writing library : libebml v1.3.4 + libmatroska v1.4.5
Video #1
ID : 1
Format : AVC
Format/Info : Advanced Video Codec
Format profile : High@L4.1
Format settings, CABAC : Yes
Format settings, ReFrames : 10 frames
Codec ID : V_MPEG4/ISO/AVC
Duration : 2h 2mn
Bit rate : 1 511 Kbps
Width : 1 152 pixels
Height : 480 pixels
Display aspect ratio : 2.40:1
Frame rate mode : Constant
Frame rate : 23.976 (24000/1001) fps
Color space : YUV
Chroma subsampling : 4:2:0
Bit depth : 8 bits
Scan type : Progressive
Bits/(Pixel*Frame) : 0.114
Stream size : 1.29 GiB (63%)
Writing library : x264 core 148 r2638 7599210
Encoding settings : cabac=1 / ref=10 / deblock=1:-3:-2 / analyse=0x3:0x133 / me=umh / subme=10 / psy=1 / psy_rd=1.00:0.00 / mixed_ref=1 / me_range=32 / chroma_me=1 / trellis=2 / 8x8dct=1 / cqm=0 / deadzone=21,11 / fast_pskip=0 / chroma_qp_offset=-2 / threads=6 / lookahead_threads=1 / sliced_threads=0 / nr=0 / decimate=1 / interlaced=0 / bluray_compat=0 / constrained_intra=0 / bframes=12 / b_pyramid=2 / b_adapt=2 / b_bias=0 / direct=1 / weightb=1 / open_gop=0 / weightp=2 / keyint=250 / keyint_min=23 / scenecut=40 / intra_refresh=0 / rc=2pass / mbtree=0 / bitrate=1511 / ratetol=1.0 / qcomp=0.65 / qpmin=0 / qpmax=69 / qpstep=4 / cplxblur=20.0 / qblur=0.5 / ip_ratio=1.40 / pb_ratio=1.30 / aq=3:0.90
Language : English
Default : Yes
Forced : No
Audio #2
ID : 2
Format : AC-3
Format/Info : Audio Coding 3
Mode extension : CM (complete main)
Format settings, Endianness : Big
Codec ID : A_AC3
Duration : 2h 2mn
Bit rate mode : Constant
Bit rate : 448 Kbps
Channel(s) : 6 channels
Channel positions : Front: L C R, Side: L R, LFE
Sampling rate : 48.0 KHz
Frame rate : 31.250 fps (1536 spf)
Compression mode : Lossy
Stream size : 392 MiB (19%)
Title : DUB [License Blu-Ray CEE]
Language : Russian
Default : Yes
Forced : No
Audio #3
ID : 3
Format : AC-3
Format/Info : Audio Coding 3
Mode extension : CM (complete main)
Format settings, Endianness : Big
Codec ID : A_AC3
Duration : 2h 2mn
Bit rate mode : Constant
Bit rate : 448 Kbps
Channel(s) : 6 channels
Channel positions : Front: L C R, Side: L R, LFE
Sampling rate : 48.0 KHz
Frame rate : 31.250 fps (1536 spf)
Compression mode : Lossy
Stream size : 392 MiB (19%)
Language : English
Default : No
Forced : No
Text #4
ID : 4
Format : UTF-8
Codec ID : S_TEXT/UTF8
Codec ID/Info : UTF-8 Plain Text
Duration : 1h 55mn
Bit rate : 41 bps
Count of elements : 841
Stream size : 34.7 KiB (0%)
Title : Full
Language : Russian
Default : No
Forced : No
Text #5
ID : 5
Format : UTF-8
Codec ID : S_TEXT/UTF8
Codec ID/Info : UTF-8 Plain Text
Duration : 1h 54mn
Bit rate : 23 bps
Count of elements : 873
Stream size : 19.7 KiB (0%)
Title : Full
Language : English
Default : No
Forced : No
Text #6
ID : 6
Format : UTF-8
Codec ID : S_TEXT/UTF8
Codec ID/Info : UTF-8 Plain Text
Duration : 1h 57mn
Bit rate : 27 bps
Count of elements : 1074
Stream size : 23.8 KiB (0%)
Title : SDH
Language : English
Default : No
Forced : No

лог

raw [info]: 1152x480p 1:1 @ 24000/1001 fps (cfr)
x264 [info]: using SAR=1/1
x264 [info]: using cpu capabilities: MMX2 SSE2Fast SSSE3 SSE4.2 AVX XOP FMA4 FMA3 LZCNT BMI1
x264 [info]: profile High, level 4.1
x264 [info]: frame I:1158 Avg QP:13.57 size: 91203
x264 [info]: frame P:33630 Avg QP:16.47 size: 19135
x264 [info]: frame B:141011 Avg QP:18.73 size: 4489
x264 [info]: consecutive B-frames: 1.5% 1.3% 7.2% 11.0% 14.3% 42.0% 7.5% 5.4% 2.3% 1.0% 2.2% 2.6% 1.7%
x264 [info]: mb I I16..4: 4.7% 76.3% 19.0%
x264 [info]: mb P I16..4: 0.6% 5.3% 0.9% P16..4: 38.7% 23.1% 18.5% 0.6% 0.2% skip:12.1%
x264 [info]: mb B I16..4: 0.0% 0.2% 0.0% B16..8: 34.8% 9.5% 2.6% direct: 2.7% skip:50.1% L0:45.7% L1:45.7% BI: 8.5%
x264 [info]: 8x8 transform intra:77.5% inter:58.3%
x264 [info]: coded y,uvDC,uvAC intra: 88.7% 84.6% 65.7% inter: 12.3% 9.8% 2.6%
x264 [info]: i16 v,h,dc,p: 38% 10% 6% 46%
x264 [info]: i8 v,h,dc,ddl,ddr,vr,hd,vl,hu: 13% 11% 7% 8% 12% 13% 12% 11% 12%
x264 [info]: i4 v,h,dc,ddl,ddr,vr,hd,vl,hu: 13% 8% 3% 10% 15% 14% 13% 11% 12%
x264 [info]: i8c dc,h,v,p: 43% 22% 19% 15%
x264 [info]: Weighted P-Frames: Y:3.6% UV:1.8%
x264 [info]: ref P L0: 46.5% 8.3% 18.3% 7.0% 5.7% 4.1% 3.8% 2.0% 2.0% 1.9% 0.3% 0.0%
x264 [info]: ref B L0: 65.2% 14.1% 7.5% 4.1% 3.0% 2.7% 2.2% 1.0% 0.4%
x264 [info]: ref B L1: 90.1% 9.9%
x264 [info]: kb/s:1507.91
x264 [total]: encoded 175799 frames, 10.12 fps, 1507.91 kb/s

Скриншоты


[Profile]  [PM] 
Display posts:    
Reply to topic

Current time is: 25-Nov 12:49

All times are UTC + 2



You cannot post new topics in this forum
You cannot reply to topics in this forum
You cannot edit your posts in this forum
You cannot delete your posts in this forum
You cannot vote in polls in this forum
You cannot attach files in this forum
You cannot download files in this forum