Доктор Стрэндж / Doctor Strange (Скотт Дерриксон / Scott Derrickson) [2016, США, фантастика, фэнтези, боевик, приключения, BDRip-AVC] [IMAX Edition] Dub (iTunes) + Sub Rus, Eng + Original Eng

Reply to topic
 
Author
Message

Satyr ®

Gender: Unknown

Longevity: 11 years

Posts: 15401

Reputation: 55 [+] [-]

Satyr · Post 20-Feb-2017 21:25

[Quote] 

Доктор Стрэндж / Doctor Strange
«За гранью сознания лежит новая реальность»--IMAX Edition
-- Страна: США
Жанр: фантастика, фэнтези, боевик, приключения
Год выпуска: 2016
Продолжительность: 01:54:59
Перевод: Профессиональный (дублированный) iTunes
Оригинальная аудиодорожка: английский
Cубтитры: Русские (Форсированные, Полные iTunes, Полные), English (Full, SDH, SDH-Colored)--Режиссер: Скотт Дерриксон / Scott Derrickson--В ролях: Бенедикт Камбербэтч, Тильда Суинтон, Мадс Миккельсен, Чиветель Эджиофор, Рэйчел МакАдамс, Бенедикт Вонг, Майкл Стулбарг, Бенджамин Брэтт, Скотт Эдкинс, Зара Питиан, Алаа Умузун, Линда Луиз Дуан, Эми Ландекер, Кимберли Ван Луин, Майрид Армстронг...--Описание: Страшная автокатастрофа поставила крест на карьере успешного нейрохирурга Доктора Стрэнджа. Отчаявшись, он отправляется в путешествие в поисках исцеления и открывает в себе невероятные способности к трансформации пространства и времени. Теперь он — связующее звено между параллельными измерениями, а его миссия — защищать жителей Земли и противодействовать Злу, какое бы обличие оно ни принимало.--Доп. информация: | IMDB | КиноПоиск | Сэмпл | --Качество видео: BDRip-AVC Doctor Strange (2016) [IMAX Edition] 1080p [2D/3D] BD-Remux HDClub
Формат видео: MKV
Видео: AVC, 1108x584, 3427 Kbps, 23.976 fps, 0.221 bit/pixel.
Аудио 1: AC3 Dolby Digital, 3/2 (L,C,R,l,r) + LFE ch, 48.0 KHz, 384 Kbps | Дубляж |
Аудио 2: AC3 Dolby Digital, 3/2 (L,C,R,l,r) + LFE ch, 48.0 KHz, 448 Kbps | Original |
Аудио 3: AC3 Dolby Digital, 2/0 (L,R) ch, 48 kHz, 192 kbps | Descriptive |
Формат субтитров: softsub (SRT)

Скриншоты

MediaInfo

x264

raw [info]: 1108x584p 1:1 @ 24000/1001 fps (cfr)
x264 [info]: using SAR=1/1
x264 [info]: using cpu capabilities: MMX2 SSE2Fast SSSE3 SSE4.2 AVX
x264 [info]: profile High, level 4.1
x264 [info]: frame I:1354 Avg QP:13.44 size: 87045
x264 [info]: frame P:34404 Avg QP:15.68 size: 39201
x264 [info]: frame B:129642 Avg QP:17.87 size: 11482
x264 [info]: consecutive B-frames: 2.6% 2.1% 6.4% 14.9% 17.9% 37.6% 7.4% 5.3% 1.9% 0.9% 0.8% 0.6% 0.5%
x264 [info]: mb I I16..4: 18.6% 58.6% 22.8%
x264 [info]: mb P I16..4: 2.3% 22.9% 3.8% P16..4: 23.5% 22.6% 14.8% 0.0% 0.0% skip:10.1%
x264 [info]: mb B I16..4: 0.2% 1.8% 0.4% B16..8: 31.4% 15.5% 4.4% direct: 5.9% skip:40.5% L0:45.3% L1:38.9% BI:15.8%
x264 [info]: 8x8 transform intra:76.5% inter:42.1%
x264 [info]: coded y,uvDC,uvAC intra: 90.5% 87.9% 76.0% inter: 22.9% 18.6% 6.2%
x264 [info]: i16 v,h,dc,p: 18% 11% 24% 47%
x264 [info]: i8 v,h,dc,ddl,ddr,vr,hd,vl,hu: 14% 14% 14% 7% 9% 9% 10% 9% 12%
x264 [info]: i4 v,h,dc,ddl,ddr,vr,hd,vl,hu: 11% 18% 5% 8% 13% 11% 12% 9% 11%
x264 [info]: i8c dc,h,v,p: 47% 23% 16% 13%
x264 [info]: Weighted P-Frames: Y:4.1% UV:2.1%
x264 [info]: ref P L0: 46.2% 9.1% 19.0% 6.3% 6.0% 3.5% 3.6% 1.7% 1.9% 1.3% 1.5% 0.1% 0.0%
x264 [info]: ref B L0: 70.6% 12.1% 6.4% 3.7% 2.3% 1.8% 1.4% 0.9% 0.6% 0.3%
x264 [info]: ref B L1: 94.8% 5.2%
x264 [info]: kb/s:3426.87
General
Unique ID : 247800477591076562233944945067877225032 (0xBA6CA2D1112F84B899320CBF18585248)
Complete name : Doctor Strange (2016).mkv
Format : Matroska
Format version : Version 4 / Version 2
File size : 3.58 GiB
Duration : 1 h 55 min
Overall bit rate : 4 445 kb/s
Movie name : Доктор Стрэндж / Doctor Strange (2016) IMAX
Encoded date : UTC 2017-02-18 22:57:46
Writing application : mkvmerge v8.1.0 ('Psychedelic Postcard') 64bit
Writing library : libebml v1.3.1 + libmatroska v1.4.2
Cover : Yes
Attachments : cover.jpg
Video
ID : 1
Format : AVC
Format/Info : Advanced Video Codec
Format profile : High@L4.1
Format settings, CABAC : Yes
Format settings, ReFrames : 11 frames
Codec ID : V_MPEG4/ISO/AVC
Duration : 1 h 54 min
Bit rate : 3 427 kb/s
Width : 1 108 pixels
Height : 584 pixels
Display aspect ratio : 1.897
Frame rate mode : Constant
Frame rate : 23.976 (24000/1001) FPS
Color space : YUV
Chroma subsampling : 4:2:0
Bit depth : 8 bits
Scan type : Progressive
Bits/(Pixel*Frame) : 0.221
Stream size : 2.75 GiB (77%)
Title : Doctor Strange. 2016 (IMAX) By optik.1557
Writing library : x264 core 148 r2744kMod b97ae06
Encoding settings : cabac=1 / ref=11 / deblock=1:-3:-2 / analyse=0x3:0x113 / me=umh / subme=10 / psy=1 / fade_compensate=0.00 / psy_rd=1.01:0.20 / mixed_ref=1 / me_range=32 / chroma_me=1 / trellis=2 / 8x8dct=1 / cqm=0 / deadzone=21,11 / fast_pskip=0 / chroma_qp_offset=-3 / threads=6 / lookahead_threads=1 / sliced_threads=0 / nr=0 / decimate=1 / interlaced=0 / bluray_compat=0 / constrained_intra=0 / bframes=12 / b_pyramid=2 / b_adapt=2 / b_bias=0 / direct=1 / weightb=1 / open_gop=0 / weightp=2 / keyint=250 / keyint_min=23 / scenecut=40 / intra_refresh=0 / rc_lookahead=60 / rc=crf / mbtree=0 / crf=16.7000 / qcomp=0.60 / qpmin=0 / qpmax=69 / qpstep=4 / vbv_maxrate=50000 / vbv_bufsize=62500 / crf_max=0.0 / nal_hrd=none / filler=0 / ip_ratio=1.40 / pb_ratio=1.30 / aq=3:0.80
Language : English
Default : Yes
Forced : No
Audio #1
ID : 2
Format : AC-3
Format/Info : Audio Coding 3
Mode extension : CM (complete main)
Format settings, Endianness : Big
Codec ID : A_AC3
Duration : 1 h 55 min
Bit rate mode : Constant
Bit rate : 384 kb/s
Channel(s) : 6 channels
Channel positions : Front: L C R, Side: L R, LFE
Sampling rate : 48.0 kHz
Frame rate : 31.250 FPS (1536 spf)
Bit depth : 16 bits
Compression mode : Lossy
Stream size : 317 MiB (9%)
Title : Дубляж (iTunes)
Language : Russian
Default : Yes
Forced : No
Audio #2
ID : 3
Format : AC-3
Format/Info : Audio Coding 3
Mode extension : CM (complete main)
Format settings, Endianness : Big
Codec ID : A_AC3
Duration : 1 h 54 min
Bit rate mode : Constant
Bit rate : 448 kb/s
Channel(s) : 6 channels
Channel positions : Front: L C R, Side: L R, LFE
Sampling rate : 48.0 kHz
Frame rate : 31.250 FPS (1536 spf)
Bit depth : 16 bits
Compression mode : Lossy
Stream size : 368 MiB (10%)
Title : Original
Language : English
Default : No
Forced : No
Audio #3
ID : 4
Format : AC-3
Format/Info : Audio Coding 3
Mode extension : CM (complete main)
Format settings, Endianness : Big
Codec ID : A_AC3
Duration : 1 h 54 min
Bit rate mode : Constant
Bit rate : 192 kb/s
Channel(s) : 2 channels
Channel positions : Front: L R
Sampling rate : 48.0 kHz
Frame rate : 31.250 FPS (1536 spf)
Bit depth : 16 bits
Compression mode : Lossy
Stream size : 158 MiB (4%)
Title : Descriptive
Language : English
Default : No
Forced : No
Text #1
ID : 5
Format : UTF-8
Codec ID : S_TEXT/UTF8
Codec ID/Info : UTF-8 Plain Text
Duration : 1 h 33 min
Bit rate : 0 b/s
Count of elements : 3
Stream size : 86.0 Bytes (0%)
Title : forced
Language : Russian
Default : Yes
Forced : No
Text #2
ID : 6
Format : UTF-8
Codec ID : S_TEXT/UTF8
Codec ID/Info : UTF-8 Plain Text
Duration : 1 h 52 min
Bit rate : 73 b/s
Count of elements : 1286
Stream size : 60.6 KiB (0%)
Title : iTunes
Language : Russian
Default : No
Forced : No
Text #3
ID : 7
Format : UTF-8
Codec ID : S_TEXT/UTF8
Codec ID/Info : UTF-8 Plain Text
Duration : 1 h 52 min
Bit rate : 76 b/s
Count of elements : 1097
Stream size : 62.6 KiB (0%)
Language : Russian
Default : No
Forced : No
Text #4
ID : 8
Format : UTF-8
Codec ID : S_TEXT/UTF8
Codec ID/Info : UTF-8 Plain Text
Duration : 1 h 52 min
Bit rate : 43 b/s
Count of elements : 1319
Stream size : 36.1 KiB (0%)
Language : English
Default : No
Forced : No
Text #5
ID : 9
Format : UTF-8
Codec ID : S_TEXT/UTF8
Codec ID/Info : UTF-8 Plain Text
Duration : 1 h 54 min
Bit rate : 49 b/s
Count of elements : 1584
Stream size : 41.3 KiB (0%)
Title : SDH
Language : English
Default : No
Forced : No
Text #6
ID : 10
Format : UTF-8
Codec ID : S_TEXT/UTF8
Codec ID/Info : UTF-8 Plain Text
Duration : 1 h 54 min
Bit rate : 63 b/s
Count of elements : 1585
Stream size : 52.8 KiB (0%)
Title : SDH-Colored
Language : English
Default : No
Forced : No
Menu
00:00:00.000 : en:Chapter 1
00:04:34.564 : en:Chapter 2
00:10:16.823 : en:Chapter 3
00:18:32.152 : en:Chapter 4
00:24:37.017 : en:Chapter 5
00:31:40.480 : en:Chapter 6
00:38:33.810 : en:Chapter 7
00:43:16.135 : en:Chapter 8
00:48:24.524 : en:Chapter 9
00:55:34.496 : en:Chapter 10
01:05:04.358 : en:Chapter 11
01:12:38.436 : en:Chapter 12
01:22:14.345 : en:Chapter 13
01:28:28.636 : en:Chapter 14
01:35:00.903 : en:Chapter 15
01:45:06.507 : en:Chapter 16
[Profile]  [PM] 
Display posts:    
Reply to topic

Current time is: 28-Nov 18:38

All times are UTC + 2



You cannot post new topics in this forum
You cannot reply to topics in this forum
You cannot edit your posts in this forum
You cannot delete your posts in this forum
You cannot vote in polls in this forum
You cannot attach files in this forum
You cannot download files in this forum