Рождество с неудачниками / Christmas with the Kranks (Джо Рот / Joe Roth) [2004, США, комедия, семейный, WEB-DL 1080p] Dub + MVO + 2x DVO + DVO (Ukr) + Sub Rus, Eng + Original Eng

Reply to topic
 
Author
Message

Faust ®

Gender: Unknown

Longevity: 9 years 2 months

Posts: 14058

Reputation: 0 [+] [-]

Faust · Post 21-Feb-2017 13:45

[Quote] 

Рождество с неудачниками / Christmas with the Kranks
Страна: США
Студия: Revolution Studios, 1492 Pictures, Skipping Christmas
Жанр: комедия, семейный
Год выпуска: 2004
Продолжительность: 01:38:52
Перевод 1: Профессиональный (дублированный) R5
Перевод 2: Профессиональный (многоголосый закадровый)
Перевод 3: Профессиональный (двухголосый закадровый) Tycoon
Перевод 4: Профессиональный (двухголосый закадровый)
Cубтитры: русские (Notabenoid), английские
Оригинальная аудиодорожка: английский
Режиссер: Джо Рот / Joe Roth
В ролях: Тим Аллен, Джейми Ли Кёртис, Дэн Эйкройд, М. Эммет Уолш, Элизабет Франц, Эрик Пер Салливан, Чич Марин, Джейк Бьюзи, Остин Пендлтон, Том Постон
Описание: Лютера и его жену Нору просто достало Рождество. Вся эта суета, эти елки, подарки и хлопушки. В этот год они твердо решают «забить» на него и смотаться в круиз по Карибам, позабыв про идиотские колядки под окнами и трескучие фейерверки соседей. Но не тут-то было! Попытка убежать от Рождества вызывает такие последствия, какие им даже не снились…- -Сэмпл: https://yadi.sk/i/_9GzGnF03EA7Vu
Тип релиза: WEB-DL 1080p
Контейнер: MKV
Видео: h.264, 1920x1080, 23.976 fps, 12800 kbps
Аудио #1: Russian: AC3 5.1, 48 kHz, 448 kbps avg |Дубляж, R5|
Аудио #2: Russian: AC3 5.1, 48 kHz, 384 kbps avg |Многоголосый закадровый|
Аудио #3: Russian: AC3 5.1, 48 kHz, 448 kbps avg |Двухголосый закадровый, Tycoon|
Аудио #4: Russian: AC3 2.0, 48 kHz, 192 kbps avg |Двухголосый закадровый|
Аудио #5: Ukrainian: AC3 5.1, 48 kHz, 384 kbps avg |Двухголосый закадровый, К1|
Аудио #6: English: E-AC-3 5.1, 48 kHz, 640 kbps avg |Оригинал|
Формат субтитров: softsub (SRT)

MediaInfo

Полное имя : F:\Christmas.with.the.Kranks.2004.1080p.WEBRip.4xRus.Ukr.Eng.HDCLUB.mkv
Формат : Matroska
Версия формата : Version 2
Размер файла : 10,8 Гбайт
Продолжительность : 1 ч. 38 м.
Режим общего битрейта : Переменный
Общий поток : 15,6 Мбит/сек
Название фильма : Christmas with the Kranks (2004) - Release for HDCLUB
Дата кодирования : UTC 2017-02-06 00:42:25
Программа кодирования : mkvmerge v5.8.0 ('No Sleep / Pillow') built on Sep 2 2012 15:37:04
Библиотека кодирования : libebml v1.2.3 + libmatroska v1.3.0
Обложка : Yes
Attachments : cover.jpg
Видео
Идентификатор : 1
Формат : AVC
Формат/Информация : Advanced Video Codec
Профиль формата : High@L4
Параметр CABAC формата : Да
Параметр ReFrames формата : 4 кадра
Идентификатор кодека : V_MPEG4/ISO/AVC
Продолжительность : 1 ч. 38 м.
Вид битрейта : Переменный
Битрейт : 12,8 Мбит/сек
Максимальный битрейт : 15,0 Мбит/сек
Ширина : 1920 пикселей
Высота : 1080 пикселей
Соотношение сторон : 16:9
Режим частоты кадров : Постоянный
Частота кадров : 23,976 (24000/1001) кадра/сек
Цветовое пространство : YUV
Субдискретизация насыщенности : 4:2:0
Битовая глубина : 8 бит
Тип развёртки : Прогрессивная
Бит/(Пиксели*Кадры) : 0.257
Размер потока : 8,82 Гбайт (82%)
Заголовок : Christmas with the Kranks (2004) - Release for HDCLUB
Библиотека кодирования : x264 core 148 r2623 d5b2374
Настройки программы : cabac=1 / ref=4 / deblock=1:-1:-1 / analyse=0x3:0x133 / me=umh / subme=9 / psy=1 / psy_rd=1.00:0.15 / mixed_ref=1 / me_range=24 / chroma_me=1 / trellis=2 / 8x8dct=1 / cqm=0 / deadzone=21,11 / fast_pskip=1 / chroma_qp_offset=-3 / threads=34 / lookahead_threads=5 / sliced_threads=0 / nr=150 / decimate=1 / interlaced=0 / bluray_compat=0 / constrained_intra=0 / bframes=8 / b_pyramid=2 / b_adapt=2 / b_bias=0 / direct=3 / weightb=1 / open_gop=0 / weightp=2 / keyint=120 / keyint_min=61 / scenecut=0 / intra_refresh=0 / rc_lookahead=120 / rc=crf / mbtree=1 / crf=18.0 / qcomp=0.60 / qpmin=0 / qpmax=69 / qpstep=4 / vbv_maxrate=15000 / vbv_bufsize=31250 / crf_max=0.0 / nal_hrd=vbr / filler=0 / ip_ratio=1.40 / aq=3:1.00
Язык : English
Default : Да
Forced : Нет
Цветовой диапазон : Limited
Основные цвета : BT.709
Характеристики трансфера : BT.709
Коэффициенты матрицы : BT.709
Аудио #1
Идентификатор : 2
Формат : AC-3
Формат/Информация : Audio Coding 3
Расширение режима : CM (complete main)
Параметр Endianness формата : Big
Идентификатор кодека : A_AC3
Продолжительность : 1 ч. 38 м.
Вид битрейта : Постоянный
Битрейт : 448 Кбит/сек
Каналы : 6 каналов
Расположение каналов : Front: L C R, Side: L R, LFE
Частота : 48,0 КГц
Частота кадров : 31,250 кадров/сек (1536 spf)
Битовая глубина : 16 бит
Метод сжатия : С потерями
Размер потока : 317 Мбайт (3%)
Заголовок : Дубляж, R5
Язык : Russian
Default : Да
Forced : Нет
Аудио #2
Идентификатор : 3
Формат : AC-3
Формат/Информация : Audio Coding 3
Расширение режима : CM (complete main)
Параметр Endianness формата : Big
Идентификатор кодека : A_AC3
Продолжительность : 1 ч. 38 м.
Вид битрейта : Постоянный
Битрейт : 384 Кбит/сек
Каналы : 6 каналов
Расположение каналов : Front: L C R, Side: L R, LFE
Частота : 48,0 КГц
Частота кадров : 31,250 кадров/сек (1536 spf)
Битовая глубина : 16 бит
Метод сжатия : С потерями
Размер потока : 272 Мбайт (2%)
Заголовок : Многоголосый закадровый
Язык : Russian
Default : Нет
Forced : Нет
Аудио #3
Идентификатор : 4
Формат : AC-3
Формат/Информация : Audio Coding 3
Расширение режима : CM (complete main)
Параметр Endianness формата : Big
Идентификатор кодека : A_AC3
Продолжительность : 1 ч. 38 м.
Вид битрейта : Постоянный
Битрейт : 448 Кбит/сек
Каналы : 6 каналов
Расположение каналов : Front: L C R, Side: L R, LFE
Частота : 48,0 КГц
Частота кадров : 31,250 кадров/сек (1536 spf)
Битовая глубина : 16 бит
Метод сжатия : С потерями
Размер потока : 317 Мбайт (3%)
Заголовок : Двухголосый закадровый, Tycoon
Язык : Russian
Default : Нет
Forced : Нет
Аудио #4
Идентификатор : 5
Формат : AC-3
Формат/Информация : Audio Coding 3
Расширение режима : CM (complete main)
Параметр Endianness формата : Big
Идентификатор кодека : A_AC3
Продолжительность : 1 ч. 38 м.
Вид битрейта : Постоянный
Битрейт : 192 Кбит/сек
Каналы : 2 канала
Расположение каналов : Front: L R
Частота : 48,0 КГц
Частота кадров : 31,250 кадров/сек (1536 spf)
Битовая глубина : 16 бит
Метод сжатия : С потерями
Размер потока : 136 Мбайт (1%)
Заголовок : Двухголосый закадровый
Язык : Russian
Default : Нет
Forced : Нет
Аудио #5
Идентификатор : 6
Формат : AC-3
Формат/Информация : Audio Coding 3
Расширение режима : CM (complete main)
Параметр Endianness формата : Big
Идентификатор кодека : A_AC3
Продолжительность : 1 ч. 38 м.
Вид битрейта : Постоянный
Битрейт : 384 Кбит/сек
Каналы : 6 каналов
Расположение каналов : Front: L C R, Side: L R, LFE
Частота : 48,0 КГц
Частота кадров : 31,250 кадров/сек (1536 spf)
Битовая глубина : 16 бит
Метод сжатия : С потерями
Размер потока : 272 Мбайт (2%)
Заголовок : Двухголосый закадровый, К1
Язык : Ukrainian
Default : Нет
Forced : Нет
Аудио #6
Идентификатор : 7
Формат : E-AC-3
Формат/Информация : Enhanced Audio Coding 3
Параметр Endianness формата : Big
Идентификатор кодека : A_EAC3
Продолжительность : 1 ч. 38 м.
Вид битрейта : Постоянный
Битрейт : 640 Кбит/сек
Каналы : 6 каналов
Расположение каналов : Front: L C R, Side: L R, LFE
Частота : 48,0 КГц
Частота кадров : 187,500 кадров/сек (256 spf)
Метод сжатия : С потерями
Размер потока : 453 Мбайт (4%)
Заголовок : English
Язык : English
Default : Нет
Forced : Нет
Текст #1
Идентификатор : 8
Формат : UTF-8
Идентификатор кодека : S_TEXT/UTF8
Идентификатор кодека/Информация : UTF-8 Plain Text
Заголовок : Russian (Notabenoid)
Язык : Russian
Default : Нет
Forced : Нет
Текст #2
Идентификатор : 9
Формат : UTF-8
Идентификатор кодека : S_TEXT/UTF8
Идентификатор кодека/Информация : UTF-8 Plain Text
Заголовок : English
Язык : English
Default : Нет
Forced : Нет
Меню
00:00:00.000 : :Start
00:03:14.000 : :Couldn't Get Any Wetter
00:06:44.000 : :Luther's Big Idea
00:11:30.000 : :"When Do We Leave?"
00:12:59.000 : :Skipping Christmas
00:16:19.000 : :Mr. Frohmeyer
00:20:06.000 : :Neighbor Problems
00:22:46.000 : :"Give Us Frosty!"
00:26:41.000 : :Tans Forever
00:29:24.000 : :Mystery Photographer
00:32:32.000 : :Some Christmas Cheer
00:37:06.000 : :Botox
00:41:35.000 : :More Holiday Shocks
00:45:57.000 : :Christmas Tree
00:48:59.000 : :Lost His Mind
00:51:02.000 : :Ham
00:54:30.000 : :Spike's Rescue
00:57:04.000 : :The End of Frosty
01:01:57.000 : :Party at the Krank's
01:04:37.000 : :Another Change of Plans
01:06:31.000 : :Stalling
01:10:53.000 : :Break-In
01:14:18.000 : :"They're Here!"
01:17:04.000 : :Family & Friends
01:19:58.000 : :Holiday Guilt & Shame
01:22:27.000 : :Walt & Bev
01:24:37.000 : :Christmas Offering
01:29:10.000 : :Marty's Secret

Скриншоты

[Profile]  [PM] 
Display posts:    
Reply to topic

Current time is: 28-Nov 10:14

All times are UTC + 2



You cannot post new topics in this forum
You cannot reply to topics in this forum
You cannot edit your posts in this forum
You cannot delete your posts in this forum
You cannot vote in polls in this forum
You cannot attach files in this forum
You cannot download files in this forum