Девушка на танке / Танкистка / Девушка-Танк / Tank Girl (Рейчел Тэлалей / Rachel Talalay) [1995, США, фантастика, BDRip 720p] 2x MVO (СТС, Варус Видео) + DVO (НТВ+) + 2x AVO (Дольский, Володарский) + 2x VO + Sub Rus, Eng + Original Eng

Reply to topic
 
Author
Message

Faust ®

Gender: Unknown

Longevity: 9 years 2 months

Posts: 14058

Reputation: 0 [+] [-]

Faust · Post 21-Feb-2017 13:45

[Quote] 

Девушка на Танке / Танкистка / Девушка-Танк / Tank Girl-
Страна: США
Жанр: Комедия, Фантастика, Трэш
Год выпуска: 1995
Продолжительность: 01:44:05
Перевод 1: Профессиональный (многоголосый закадровый) СТС
Перевод 2: Профессиональный (многоголосый закадровый) Варус Видео
Перевод 3: Профессиональный (двухголосый закадровый) НТВ+
Перевод 4: Авторский (одноголосый закадровый) Андрей Дольский
Перевод 5: Авторский (одноголосый закадровый) Леонид Володарский
Перевод 6: Любительский (одноголосый закадровый) ZEDFILMS
Перевод 7: Любительский (одноголосый закадровый) неизвестный
Cубтитры: русские, английские
Оригинальная аудиодорожка: английский
Режиссер: Рейчел Тэлалей / Rachel Talalay
В ролях: Лори Петти, Айс-Ти, Наоми Уоттс, Дон Харви, Джефф Кобер, Рег Э. Кэти, Скотт Коффи, Малкольм Макдауэлл, Энн Кьюсак-Описание: После столкновения с огромной кометой на Земле десять лет нет дождя. В результате вода стала источником жизни в прямом смысле слова, так как ее было очень мало и на всех не хватало. А заправляла всем корпорация "Вода-Энергия-Власть" во главе со злодеем МакДауэллом. Ренегаты воровали воду и воевали со злодеями. Среди ренегатов была остроумная и красивая девушка Ребекка, у которой на все готов ответ. Ее близких убили, маленькую дочку увели злодеи, а саму ее взяли в плен и хотели было заставить работать в шахте. Но не тут то было. МакДауэлла так поразила неординарность девицы, расправившейся с 8 солдатами, что он предложил ей работу у себя, но та отказалась. Он оставил ей жизнь, решив сломать незаурядный характер, но потом ему пришлось горько об этом пожалеть...-Релиз: -Благодарность:
alenavova за предоставление спутниковой записи с канала НТВ+
algraph за DVD5 с озвучкой СТС
Fikaloid за предоставление оцифровки с озвучкой Варус Видео
teko за дорожку с озвучкой Леонида Володарского
ylnian - оплата перевода Андрея Дольского и сборка дорожки-Доп. информация: Все имевшиеся русские аудиодороги были подогнаны без повторного пересжатия.-Качество: BDRip 720p EbP
Формат: MKV
Видео: MPEG-4 AVC, 1280x546 (2,35:1), 23.976 fps, 7425 kbps
Аудио 1: Русский, AC3 Dolby Digital, 6ch, 448 kbps, 48 kHz |СТС|
Аудио 2: Русский, AC3 Dolby Digital, 2ch, 224 kbps, 48 kHz |Варус Видео|
Аудио 3: Русский, AC3 Dolby Digital, 2ch, 192 kbps, 48 kHz |НТВ+|
Аудио 4: Русский, Digital Theater System, 6ch, 1510 kbps, 48 kHz |Андрей Дольский|
Аудио 5: Русский, AC3 Dolby Digital, 2ch, 192 kbps, 48 kHz |Леонид Володарский|
Аудио 6: Русский, AC3 Dolby Digital, 2ch, 192 kbps, 48 kHz |ZEDFILMS|
Аудио 7: Русский, AC3 Dolby Digital, 2ch, 192 kbps, 48 kHz
Аудио 8: Английский, AC3 Dolby Digital, 6ch, 640 kbps, 48 kHz
Cубтитры: Русские, Английские (SDH) | SubRip

Скриншоты



MediaInfo


Общее
Уникальный идентификатор : 238214320356342977346409789542924679691 (0xB33668C6495EF42BA66876959E79FA0B)
Полное имя : D:\Stuff\Tank.Girl.1995.BDRip.720p-SergeZuich.mkv
Формат : Matroska
Версия формата : Version 4 / Version 2
Размер файла : 8,17 Гбайт
Продолжительность : 1 ч. 44 м.
Общий поток : 11,2 Мбит/сек
Дата кодирования : UTC 2017-02-16 10:39:32
Программа кодирования : mkvmerge v8.3.0 ('Over the Horizon') 64bit
Библиотека кодирования : libebml v1.3.1 + libmatroska v1.4.2
Видео
Идентификатор : 1
Формат : AVC
Формат/Информация : Advanced Video Codec
Профиль формата : High@L4.1
Параметр CABAC формата : Да
Параметр ReFrames формата : 11 кадров
Идентификатор кодека : V_MPEG4/ISO/AVC
Продолжительность : 1 ч. 44 м.
Битрейт : 7425 Кбит/сек
Ширина : 1280 пикселей
Высота : 546 пикселей
Соотношение сторон : 2,35:1
Режим частоты кадров : Постоянный
Частота кадров : 23,976 кадра/сек
Цветовое пространство : YUV
Субдискретизация насыщенности : 4:2:0
Битовая глубина : 8 бит
Тип развёртки : Прогрессивная
Бит/(Пиксели*Кадры) : 0.443
Размер потока : 5,40 Гбайт (66%)
Заголовок : Tank Girl
Библиотека кодирования : x264 core 142 r2389kMod 956c8d8
Настройки программы : cabac=1 / ref=11 / deblock=1:-3:-3 / analyse=0x3:0x133 / me=umh / subme=10 / psy=1 / fade_compensate=0.00 / psy_rd=1.00:0.00 / mixed_ref=1 / me_range=32 / chroma_me=1 / trellis=2 / 8x8dct=1 / cqm=0 / deadzone=6,6 / fast_pskip=0 / chroma_qp_offset=-2 / threads=12 / lookahead_threads=3 / sliced_threads=0 / nr=0 / decimate=0 / interlaced=0 / bluray_compat=0 / constrained_intra=0 / fgo=0 / bframes=12 / b_pyramid=2 / b_adapt=2 / b_bias=0 / direct=3 / weightb=1 / open_gop=0 / weightp=2 / keyint=250 / keyint_min=23 / scenecut=40 / intra_refresh=0 / rc=crf / mbtree=0 / crf=18.3000 / qcomp=0.80 / qpmin=0 / qpmax=69 / qpstep=4 / ip_ratio=1.30 / pb_ratio=1.10 / aq=1:0.65
Default : Да
Forced : Нет
Аудио #1
Идентификатор : 2
Формат : AC-3
Формат/Информация : Audio Coding 3
Расширение режима : CM (complete main)
Параметр Endianness формата : Big
Идентификатор кодека : A_AC3
Продолжительность : 1 ч. 44 м.
Вид битрейта : Постоянный
Битрейт : 448 Кбит/сек
Каналы : 6 каналов
Расположение каналов : Front: L C R, Side: L R, LFE
Частота : 48,0 КГц
Метод сжатия : С потерями
Размер потока : 334 Мбайт (4%)
Заголовок : MVO [CTC] - AC3 Dolby Digital, 6ch, 448 kbps, 48 kHz
Язык : Russian
Default : Да
Forced : Нет
Аудио #2
Идентификатор : 3
Формат : AC-3
Формат/Информация : Audio Coding 3
Расширение режима : CM (complete main)
Параметр Endianness формата : Big
Идентификатор кодека : A_AC3
Продолжительность : 1 ч. 44 м.
Вид битрейта : Постоянный
Битрейт : 224 Кбит/сек
Каналы : 2 канала
Расположение каналов : Front: L R
Частота : 48,0 КГц
Метод сжатия : С потерями
Размер потока : 167 Мбайт (2%)
Заголовок : MVO [Varus-Video] - AC3 Dolby Digital, 2ch, 224 kbps, 48 kHz
Язык : Russian
Default : Нет
Forced : Нет
Аудио #3
Идентификатор : 4
Формат : AC-3
Формат/Информация : Audio Coding 3
Расширение режима : CM (complete main)
Параметр Endianness формата : Big
Идентификатор кодека : A_AC3
Продолжительность : 1 ч. 44 м.
Вид битрейта : Постоянный
Битрейт : 192 Кбит/сек
Каналы : 2 канала
Расположение каналов : Front: L R
Частота : 48,0 КГц
Метод сжатия : С потерями
Размер потока : 143 Мбайт (2%)
Заголовок : DVO [HTB+] - AC3 Dolby Digital, 2ch, 192 kbps, 48 kHz
Язык : Russian
Default : Нет
Forced : Нет
Аудио #4
Идентификатор : 5
Формат : DTS
Формат/Информация : Digital Theater Systems
Режим : 16
Параметр Endianness формата : Big
Идентификатор кодека : A_DTS
Продолжительность : 1 ч. 44 м.
Вид битрейта : Постоянный
Битрейт : 1510 Кбит/сек
Каналы : 6 каналов
Расположение каналов : Front: L C R, Side: L R, LFE
Частота : 48,0 КГц
Битовая глубина : 24 бит
Метод сжатия : С потерями
Размер потока : 1,10 Гбайт (13%)
Заголовок : AVO [Dolskiy] - DTS, 6ch, 1510 kbps, 48 kHz
Язык : Russian
Default : Нет
Forced : Нет
Аудио #5
Идентификатор : 6
Формат : AC-3
Формат/Информация : Audio Coding 3
Расширение режима : CM (complete main)
Параметр Endianness формата : Big
Идентификатор кодека : A_AC3
Продолжительность : 1 ч. 44 м.
Вид битрейта : Постоянный
Битрейт : 192 Кбит/сек
Каналы : 2 канала
Расположение каналов : Front: L R
Частота : 48,0 КГц
Метод сжатия : С потерями
Размер потока : 143 Мбайт (2%)
Заголовок : AVO [Volodarsky] - AC3 Dolby Digital, 2ch, 192 kbps, 48 kHz
Язык : Russian
Default : Нет
Forced : Нет
Аудио #6
Идентификатор : 7
Формат : AC-3
Формат/Информация : Audio Coding 3
Расширение режима : CM (complete main)
Параметр Endianness формата : Big
Идентификатор кодека : A_AC3
Продолжительность : 1 ч. 44 м.
Вид битрейта : Постоянный
Битрейт : 192 Кбит/сек
Каналы : 2 канала
Расположение каналов : Front: L R
Частота : 48,0 КГц
Метод сжатия : С потерями
Размер потока : 143 Мбайт (2%)
Заголовок : AVO [ZEDFILMS] - AC3 Dolby Digital, 2ch, 192 kbps, 48 kHz
Язык : Russian
Default : Нет
Forced : Нет
Аудио #7
Идентификатор : 8
Формат : AC-3
Формат/Информация : Audio Coding 3
Расширение режима : CM (complete main)
Параметр Endianness формата : Big
Идентификатор кодека : A_AC3
Продолжительность : 1 ч. 44 м.
Вид битрейта : Постоянный
Битрейт : 192 Кбит/сек
Каналы : 2 канала
Расположение каналов : Front: L R
Частота : 48,0 КГц
Метод сжатия : С потерями
Размер потока : 143 Мбайт (2%)
Заголовок : AVO - AC3 Dolby Digital, 2ch, 192 kbps, 48 kHz
Язык : Russian
Default : Нет
Forced : Нет
Аудио #8
Идентификатор : 9
Формат : AC-3
Формат/Информация : Audio Coding 3
Расширение режима : CM (complete main)
Параметр Endianness формата : Big
Идентификатор кодека : A_AC3
Продолжительность : 1 ч. 44 м.
Вид битрейта : Постоянный
Битрейт : 640 Кбит/сек
Каналы : 6 каналов
Расположение каналов : Front: L C R, Side: L R, LFE
Частота : 48,0 КГц
Метод сжатия : С потерями
Размер потока : 476 Мбайт (6%)
Заголовок : Original - AC3 Dolby Digital, 6ch, 640 kbps, 48 kHz
Язык : English
Default : Нет
Forced : Нет
Текст #1
Идентификатор : 10
Формат : UTF-8
Идентификатор кодека : S_TEXT/UTF8
Идентификатор кодека/Информация : UTF-8 Plain Text
Заголовок : Девушка на Танке
Язык : Russian
Default : Да
Forced : Нет
Текст #2
Идентификатор : 11
Формат : UTF-8
Идентификатор кодека : S_TEXT/UTF8
Идентификатор кодека/Информация : UTF-8 Plain Text
Заголовок : Tank Girl
Язык : English
Default : Нет
Forced : Нет
Текст #3
Идентификатор : 12
Формат : UTF-8
Идентификатор кодека : S_TEXT/UTF8
Идентификатор кодека/Информация : UTF-8 Plain Text
Заголовок : Tank Girl (SDH)
Язык : English
Default : Нет
Forced : Нет
Меню
00:00:00.000 : en:00:00:00.000
00:07:42.087 : en:00:07:42.087
00:14:34.874 : en:00:14:34.874
00:24:09.073 : en:00:24:09.073
00:34:57.721 : en:00:34:57.721
00:42:00.518 : en:00:42:00.518
00:49:05.943 : en:00:49:05.943
00:58:41.518 : en:00:58:41.518
01:06:47.003 : en:01:06:47.003
01:15:45.541 : en:01:15:45.541
01:22:11.552 : en:01:22:11.552
01:29:38.373 : en:01:29:38.373
01:38:46.921 : en:01:38:46.921
[Profile]  [PM] 
Display posts:    
Reply to topic

Current time is: 25-Nov 13:17

All times are UTC + 2



You cannot post new topics in this forum
You cannot reply to topics in this forum
You cannot edit your posts in this forum
You cannot delete your posts in this forum
You cannot vote in polls in this forum
You cannot attach files in this forum
You cannot download files in this forum