Идиократия / Idiocracy (Майк Джадж / Mike Judge) [2006, комедия, фантастика, приключения, WEB-DL 1080p] DVO + VO (seqw0) + Original Eng + Sub Rus, Eng

Reply to topic
 
Author
Message

Faust ®

Gender: Unknown

Longevity: 9 years 2 months

Posts: 14058

Reputation: 0 [+] [-]

Faust · Post 21-Feb-2017 13:45

[Quote] 

Идиократия / Idiocracy
Страна: США
Студия: 20th Century Fox Film Corporation, Ternion Pictures
Жанр: Комедия, фантастика, приключения
Год выпуска: 2006
Продолжительность: 01:24:10
Перевод 1: Профессиональный (двухголосый, закадровый) Superbit
Перевод 2: Любительский (одноголосый закадровый) seqw0 (Ахметов Сергей)
Cубтитры: Русские, английские
Оригинальная аудиодорожка: Английский
Режиссер: Майк Джадж / Mike Judge
В ролях: Люк Уилсон, Майя Рудольф, Дэкс Шепард, Терри Крюс, Энтони Кампос, Дэвид Херман, Сонни Кастилло, Кевин МакЭфи, Роберт Мусгрейв, Майкл МакКафферти, Кристофер Райан, Джастин Лонг, Хит Джонс, Эли Муньос, Патрик Фишлер, Дарлен Хант, Мелисса Свит, Уэс Дэвис, Эндрю Уилсон, Марк Тернер, Кевин Клее, Джон Додсон, Джозеф Читхэм, Джейсон Шефер, Ричард Ридер, Лоуренс Кастилло, Турк Пипкин, Хезер Кафка, Кристофер М. Кампос, Роман Рамос, Рендал Ридер, Брендан Йен Хилл, Томас Хейден Чёрч, Мелисса Доун, Дерек Саузерс, Лидия Порто, Грег Келли, Грег Питтс, Джейсон Конописос, Митч Бэйкер, Дэниэл Смит, Крис Уорнер, Лонни Нельсон
Описание: Капрала Джо Бауэрса Пентагон выбирает для участия в сверхсекретной программе по гибернации людей. Проведя в спячке пятьсот лет, он пробуждается и попадает в цивилизацию, где интеллектуальный уровень людей намного ниже того, которым обладает он. В итоге, Джо оказывается самым умным человеком на планете…
Дополнительная информация:
Автор релиза -
Исходник - Idiocracy.2006.1080p.WEB-DL.DD+5.1.H264
За исходники спасибо Skazhutin - http://torrentsland.com.ua/forum/viewtopic.php?t=3088251
Синхронизация и редактирование субтитров, синхронизация аудио - ylnian
Имеются подписанные главы
Внимание: в переводе seqw0 и в русских субтитрах присутствует ненормативная лексика!


Сэмпл: https://yadi.sk/i/e3h6sCeJ3E9FmW
Качество видео: WEB-DL 1080p
Формат видео: MKV
Видео: MPEG-4, 1920x1080, 23.976 fps, 11400 kbps
Аудио 1: Русский DTS 5.1 / 48 kHz / 768 kbps / 24-bit - DVO
Аудио 2: Русский AC3, 48000 Гц, 6ch, 384 kbps - VO
Аудио 3: Английский E-AC3, 48000 Гц, 6ch, 640 kbps
Формат субтитров: softsub (SRT)

MediaInfo

Общее
Уникальный идентификатор : 234379711313722516400615715564807280864 (0xB053E3F3B7D6C82A8D77E44303C458E0)
Полное имя : E:\Idiocracy.2006.WEB-DL.1080p-ylnian.mkv
Формат : Matroska
Версия формата : Version 4 / Version 2
Размер файла : 7,75 Гбайт
Продолжительность : 1 ч. 24 м.
Режим общего битрейта : Переменный
Общий поток : 13,2 Мбит/сек
Название фильма : Idiocracy.2006.WEB-DL.1080p-ylnian
Дата кодирования : UTC 2017-02-16 06:45:37
Программа кодирования : mkvmerge v9.8.0 ('Kuglblids') 64bit
Библиотека кодирования : libebml v1.3.4 + libmatroska v1.4.5
Видео
Идентификатор : 1
Формат : AVC
Формат/Информация : Advanced Video Codec
Профиль формата : High@L4
Параметр CABAC формата : Да
Параметр ReFrames формата : 4 кадра
Идентификатор кодека : V_MPEG4/ISO/AVC
Продолжительность : 1 ч. 24 м.
Вид битрейта : Переменный
Битрейт : 11,4 Мбит/сек
Максимальный битрейт : 15,0 Мбит/сек
Ширина : 1920 пикселей
Высота : 1080 пикселей
Соотношение сторон : 16:9
Режим частоты кадров : Постоянный
Частота кадров : 23,976 (24000/1001) кадра/сек
Цветовое пространство : YUV
Субдискретизация насыщенности : 4:2:0
Битовая глубина : 8 бит
Тип развёртки : Прогрессивная
Бит/(Пиксели*Кадры) : 0.229
Размер потока : 6,70 Гбайт (86%)
Заголовок : Idiocracy.2006.1080p.WEB-DL.DD+5.1.H264
Библиотека кодирования : x264 core 148 r2623 d5b2374
Настройки программы : cabac=1 / ref=4 / deblock=1:-1:-1 / analyse=0x3:0x133 / me=umh / subme=9 / psy=1 / psy_rd=1.00:0.15 / mixed_ref=1 / me_range=24 / chroma_me=1 / trellis=2 / 8x8dct=1 / cqm=0 / deadzone=21,11 / fast_pskip=1 / chroma_qp_offset=-3 / threads=34 / lookahead_threads=5 / sliced_threads=0 / nr=150 / decimate=1 / interlaced=0 / bluray_compat=0 / constrained_intra=0 / bframes=8 / b_pyramid=2 / b_adapt=2 / b_bias=0 / direct=3 / weightb=1 / open_gop=0 / weightp=2 / keyint=120 / keyint_min=61 / scenecut=0 / intra_refresh=0 / rc_lookahead=120 / rc=crf / mbtree=1 / crf=18.0 / qcomp=0.60 / qpmin=0 / qpmax=69 / qpstep=4 / vbv_maxrate=15000 / vbv_bufsize=31250 / crf_max=0.0 / nal_hrd=vbr / filler=0 / ip_ratio=1.40 / aq=3:1.00
Язык : English
Default : Да
Forced : Да
Цветовой диапазон : Limited
Основные цвета : BT.709
Характеристики трансфера : BT.709
Коэффициенты матрицы : BT.709
Аудио #1
Идентификатор : 2
Формат : DTS
Формат/Информация : Digital Theater Systems
Режим : 16
Параметр Endianness формата : Big
Идентификатор кодека : A_DTS
Продолжительность : 1 ч. 24 м.
Вид битрейта : Постоянный
Битрейт : 755 Кбит/сек
Каналы : 6 каналов
Расположение каналов : Front: L C R, Side: L R, LFE
Частота : 48,0 КГц
Частота кадров : 93,750 кадра/сек (512 spf)
Битовая глубина : 24 бит
Метод сжатия : С потерями
Размер потока : 454 Мбайт (6%)
Заголовок : DVO (DTS 5.1 755 kbps)
Язык : Russian
Default : Да
Forced : Да
Аудио #2
Идентификатор : 3
Формат : AC-3
Формат/Информация : Audio Coding 3
Расширение режима : CM (complete main)
Параметр Endianness формата : Big
Идентификатор кодека : A_AC3
Продолжительность : 1 ч. 24 м.
Вид битрейта : Постоянный
Битрейт : 384 Кбит/сек
Каналы : 6 каналов
Расположение каналов : Front: L C R, Side: L R, LFE
Частота : 48,0 КГц
Частота кадров : 31,250 кадров/сек (1536 spf)
Метод сжатия : С потерями
Размер потока : 231 Мбайт (3%)
Заголовок : VO (AC3 5.1 384 kbps)
Язык : Russian
Default : Нет
Forced : Нет
Аудио #3
Идентификатор : 4
Формат : E-AC-3
Формат/Информация : Audio Coding 3
Параметр Endianness формата : Big
Идентификатор кодека : A_EAC3
Продолжительность : 1 ч. 24 м.
Вид битрейта : Постоянный
Битрейт : 640 Кбит/сек
Каналы : 6 каналов
Расположение каналов : Front: L C R, Side: L R, LFE
Частота : 48,0 КГц
Частота кадров : 187,500 кадров/сек (256 spf)
Метод сжатия : С потерями
Задержка видео : 13 мс.
Размер потока : 385 Мбайт (5%)
Заголовок : E-AC3 5.1 640 kbps
Язык : English
Default : Нет
Forced : Нет
Текст #1
Идентификатор : 5
Формат : UTF-8
Идентификатор кодека : S_TEXT/UTF8
Идентификатор кодека/Информация : UTF-8 Plain Text
Продолжительность : 1 ч. 23 м.
Битрейт : 125 бит/сек
Count of elements : 1133
Размер потока : 76,4 Кбайт (0%)
Язык : Russian
Default : Нет
Forced : Нет
Текст #2
Идентификатор : 6
Формат : UTF-8
Идентификатор кодека : S_TEXT/UTF8
Идентификатор кодека/Информация : UTF-8 Plain Text
Продолжительность : 1 ч. 23 м.
Битрейт : 86 бит/сек
Count of elements : 1213
Размер потока : 52,8 Кбайт (0%)
Язык : English
Default : Нет
Forced : Нет
Меню
00:00:00.000 : en:Main Titles/New Evolution
00:03:22.801 : en:Extremely Average Joe Bauers
00:07:36.836 : en:The Human Hibernation Project
00:10:11.170 : en:Garbage
00:13:44.705 : en:A Whole New World
00:19:10.838 : en:Retarded Justice
00:25:06.572 : en:Identification and Intelligence
00:29:40.540 : en:Fugitives
00:35:56.407 : en:"How Does Time Travel Work?"
00:39:50.074 : en:The Smartest Guy in the World
00:46:06.208 : en:Secretary Not Sure
00:52:10.309 : en:Water
00:56:40.009 : en:Revolution
01:00:19.843 : en:Rehabilitation
01:06:40.043 : en:Joe's Plea
01:10:50.744 : en:Pardon
01:12:25.478 : en:Staying Home
01:15:50.079 : en:The Time Masheen
01:16:49.212 : en:A New Era
01:19:00.345 : en:End Titles

Сравнение с HDTV 1080

HDTV 1080 --->>> WEB-DL 1080p - http://screenshotcomparison.com/comparison/200760
--->>>
--->>>
--->>>

Скриншот c названием фильма

Скриншоты

[Profile]  [PM] 
Display posts:    
Reply to topic

Current time is: 01-Dec 04:48

All times are UTC + 2



You cannot post new topics in this forum
You cannot reply to topics in this forum
You cannot edit your posts in this forum
You cannot delete your posts in this forum
You cannot vote in polls in this forum
You cannot attach files in this forum
You cannot download files in this forum