Крест. Часть вторая: Двойной обман / Cross Wars (Патрик Дархэм / Patrick Durham) [2017, США, боевик, BDRip 720p] MVO (iTunes) + Sub Rus, Eng + Original Eng

Reply to topic
 
Author
Message

Faust ®

Gender: Unknown

Longevity: 9 years 9 months

Posts: 15476

Reputation: 0 [+] [-]

Faust · Post 21-Feb-2017 13:45

[Quote] 

Крест. Часть вторая: Двойной обман / Cross Wars
Страна: США
Студия: Morningstar Films, Four Horsemen Films, El Ride Productions
Жанр: боевик
Год выпуска: 2017
Продолжительность: 01:38:15
Перевод: Профессиональный (многоголосый закадровый) iTunes
Cубтитры: русские (iTunes), английские
Оригинальная аудиодорожка: английский
Режиссер: Патрик Дархэм / Patrick Durham
В ролях: Брайан Остин Грин, Дэнни Трехо, Винни Джонс, Патрик Дархэм, Том Сайзмор, Лори Хёринг, Тим Эбелл, Андре Гордон, Нед Либл
Описание: Возвращение непримиримого борца со злом Каллана, обладателя древнего магического амулета Крест, и его брутальной команды. Теперь их жизням угрожает новый враг Муэрте и их старый знакомый, проклятый викинг Гуннар. Чтобы спастись самим и спасти всё человечество, герои вынуждены объединиться с командой воинственных женщин, возглавляемых красавицей Райли, у которой есть своей древний амулет.
Сэмпл: https://yadi.sk/i/r0fLMhPj3E8ada
Тип релиза: BDRip 720p [HellBoy @ PriMaLHD (UHDBits)]
Контейнер: MKV
Видео: h.264, 1280x692, 23.976 fps, 6819 kbps
Аудио #1: Russian: AC3 5.1, 48 kHz, 384 kbps avg |Многоголосый закадровый, iTunes|
Аудио #2: English: DTS 5.1, 48 kHz/24-bit, 1536 kbps avg |Оригинал|
Формат субтитров: softsub (SRT)

MediaInfo

Полное имя : D:\Cross.Wars.2017.720p.BluRay.Rus.Eng.x264-PriMaLHD.mkv
Формат : Matroska
Версия формата : Version 4 / Version 2
Размер файла : 5,98 Гбайт
Продолжительность : 1 ч. 38 м.
Общий поток : 8715 Кбит/сек
Название фильма : HellBoy @PriMaLHD
Дата кодирования : UTC 2017-02-15 19:32:20
Программа кодирования : mkvmerge v9.8.0 ('Kuglblids') 64bit
Библиотека кодирования : libebml v1.3.4 + libmatroska v1.4.5
Видео
Идентификатор : 1
Формат : AVC
Формат/Информация : Advanced Video Codec
Профиль формата : High@L4.1
Параметр CABAC формата : Да
Параметр ReFrames формата : 9 кадров
Идентификатор кодека : V_MPEG4/ISO/AVC
Продолжительность : 1 ч. 38 м.
Битрейт : 6819 Кбит/сек
Ширина : 1280 пикселей
Высота : 692 пикселя
Соотношение сторон : 1,85:1
Режим частоты кадров : Постоянный
Частота кадров : 23,976 (24000/1001) кадра/сек
Цветовое пространство : YUV
Субдискретизация насыщенности : 4:2:0
Битовая глубина : 8 бит
Тип развёртки : Прогрессивная
Бит/(Пиксели*Кадры) : 0.321
Размер потока : 4,68 Гбайт (78%)
Заголовок : Cross Wars 2017 720p BluRay DTS x264-PriMaLHD
Библиотека кодирования : x264 core 142 r2431+42 c69a006 tMod [8-bit@4:2:0 X86_64]
Настройки программы : cabac=1 / ref=9 / deblock=1:-3:-3 / analyse=0x3:0x113 / me=umh / subme=11 / psy=1 / fade_compensate=0.00 / psy_rd=1.05:0.00 / mixed_ref=1 / me_range=32 / chroma_me=1 / trellis=2 / 8x8dct=1 / cqm=0 / deadzone=21,11 / fast_pskip=0 / chroma_qp_offset=-2 / threads=12 / lookahead_threads=2 / sliced_threads=0 / nr=0 / decimate=0 / interlaced=0 / bluray_compat=0 / constrained_intra=0 / fgo=0 / bframes=7 / b_pyramid=2 / b_adapt=2 / b_bias=0 / direct=3 / weightb=1 / open_gop=0 / weightp=2 / keyint=250 / keyint_min=23 / scenecut=40 / intra_refresh=0 / rc_lookahead=60 / rc=crf / mbtree=0 / crf=19.0000 / qcomp=0.65 / qpmin=0:0:0 / qpmax=69:69:69 / qpstep=4 / vbv_maxrate=30000 / vbv_bufsize=38000 / crf_max=0.0 / nal_hrd=none / filler=0 / ip_ratio=1.30 / pb_ratio=1.20 / aq=3:0.80 / aq-sensitivity=10.00 / aq-factor=1.00:1.00:1.00 / aq2=0 / aq3=0 / zones=0,1800,crf=14/2657,4160,crf=15.2/4721,4913,crf=15.2/9618,9726,crf=17/14609,14631,crf=15.2/22389,26453,crf=17.2/26454,26622,crf=15.2/26623,33807,crf=14.2/33979,35738,crf=17.2/43914,44052,crf=14.2/44820,44997,crf=16.2/52919,55679,crf=17.2/55688,56122,crf=15.2/65987,68337,crf=16.2/74943,75940,crf=15.2/88056,88121,crf=15.2/98711,98835,crf=15.2
Язык : English
Default : Да
Forced : Нет
Цветовой диапазон : Limited
Основные цвета : BT.709
Характеристики трансфера : BT.709
Коэффициенты матрицы : BT.709
Аудио #1
Идентификатор : 2
Формат : AC-3
Формат/Информация : Audio Coding 3
Расширение режима : CM (complete main)
Параметр Endianness формата : Big
Идентификатор кодека : A_AC3
Продолжительность : 1 ч. 38 м.
Вид битрейта : Постоянный
Битрейт : 384 Кбит/сек
Каналы : 6 каналов
Расположение каналов : Front: L C R, Side: L R, LFE
Частота : 48,0 КГц
Частота кадров : 31,250 кадров/сек (1536 spf)
Битовая глубина : 16 бит
Метод сжатия : С потерями
Размер потока : 270 Мбайт (4%)
Заголовок : iTunes
Язык : Russian
Default : Да
Forced : Нет
Аудио #2
Идентификатор : 3
Формат : DTS
Формат/Информация : Digital Theater Systems
Режим : 16
Параметр Endianness формата : Big
Идентификатор кодека : A_DTS
Продолжительность : 1 ч. 38 м.
Вид битрейта : Постоянный
Битрейт : 1509 Кбит/сек
Каналы : 6 каналов
Расположение каналов : Front: L C R, Side: L R, LFE
Частота : 48,0 КГц
Частота кадров : 93,750 кадра/сек (512 spf)
Битовая глубина : 24 бит
Метод сжатия : С потерями
Размер потока : 1,04 Гбайт (17%)
Язык : English
Default : Нет
Forced : Нет
Текст #1
Идентификатор : 4
Формат : UTF-8
Идентификатор кодека : S_TEXT/UTF8
Идентификатор кодека/Информация : UTF-8 Plain Text
Продолжительность : 1 ч. 37 м.
Битрейт : 90 бит/сек
Count of elements : 1331
Размер потока : 64,6 Кбайт (0%)
Заголовок : iTunes
Язык : Russian
Default : Нет
Forced : Нет
Текст #2
Идентификатор : 5
Формат : UTF-8
Идентификатор кодека : S_TEXT/UTF8
Идентификатор кодека/Информация : UTF-8 Plain Text
Продолжительность : 1 ч. 37 м.
Битрейт : 56 бит/сек
Count of elements : 1310
Размер потока : 40,4 Кбайт (0%)
Язык : English
Default : Нет
Forced : Нет
Меню
00:00:00.000 : en:00:00:00.000
00:05:20.529 : en:00:05:20.529
00:13:17.714 : en:00:13:17.714
00:19:28.376 : en:00:19:28.376
00:27:18.554 : en:00:27:18.554
00:36:47.497 : en:00:36:47.497
00:42:52.570 : en:00:42:52.570
00:48:13.682 : en:00:48:13.682
00:55:09.515 : en:00:55:09.515
01:00:26.414 : en:01:00:26.414
01:06:06.296 : en:01:06:06.296
01:11:04.677 : en:01:11:04.677
01:14:51.320 : en:01:14:51.320
01:19:50.828 : en:01:19:50.828
01:25:02.055 : en:01:25:02.055
01:32:19.033 : en:01:32:19.033

log x264

x264 [info]: frame I:1921 Avg QP:16.56 size:120781
x264 [info]: frame P:29862 Avg QP:18.12 size: 58308
x264 [info]: frame B:109553 Avg QP:19.30 size: 27852
x264 [info]: consecutive B-frames: 2.6% 2.3% 4.9% 24.3% 17.0% 33.0% 7.5% 5.3%
Debanded | Deblocked

Source vs Filtered vs Encode




Screen Comparisions

Source vs Encode



Скриншоты


[Profile]  [PM] 
Display posts:    
Reply to topic

Current time is: 21-Jun 18:52

All times are UTC + 2



You cannot post new topics in this forum
You cannot reply to topics in this forum
You cannot edit your posts in this forum
You cannot delete your posts in this forum
You cannot vote in polls in this forum
You cannot attach files in this forum
You cannot download files in this forum