Игра в имитацию / The Imitation Game (Мортен Тильдум / Morten Tyldum) [2014, Великобритания, США, триллер, драма, военный, BDRip 1080p] Dub (BD RUS) + VO (Матвеев) + Ukr Dub + Original Eng + Sub (Rus, Ukr, Eng)

Reply to topic
 
Author
Message

Faust ®

Gender: Unknown

Longevity: 9 years 2 months

Posts: 14058

Reputation: 0 [+] [-]

Faust · Post 21-Feb-2017 13:45

[Quote] 

Игра в имитацию / The Imitation Game [Hybrid]- Год выпуска: 2014
Выпущено: Великобритания, США
Жанр: триллер, драма, военный
Продолжительность: 01:54:13
Перевод: Профессиональный (полное дублирование) BDRus
+ Одноголосый закадровый А.Матвеев
Оригинальная звуковая дорожка: English
Субтитры: Russian, Ukrainian, English-Режиссер: Мортен Тильдум / Morten Tyldum
В ролях: Бенедикт Камбербэтч, Кира Найтли, Мэттью Гуд, Рори Киннер, Аллен Лич, Мэттью Бирд, Чарльз Дэнс, Марк Стронг, Джеймс Норткот, Том Гудман-Хилл
О фильме: Английский математик и логик Алан Тьюринг помогает взломать код Enigma во время Второй мировой войны.
Toshik®
Релиз:
Источник #1: The Imitation Game 2014 1080p JPN Blu-ray AVC TrueHD 5.1
Источник #2: The Imitation Game 2014 1080p CAN Blu-ray AVC DTS-HD MA 5.1-MODERN
Тип релиза: BDRip 1080p
Контейнер: MKV
Видео: 1920x802 at 23.976 fps, x264@L4.1, 2pass, ~18188 kbps avg
Аудио #01: Russian: 48 kHz, DTS, 3/2 (L,C,R,l,r) + LFE ch, ~1510.00 kbps avg |Дубляж, BDRus|
Аудио #02: Russian: 48 kHz, DTS, 3/2 (L,C,R,l,r) + LFE ch, ~1510.00 kbps avg |Одноголосый закадровый, А. Матвеев|
Аудио #03: Ukrainian: 48 kHz, DTS, 3/2 (L,C,R,l,r) + LFE ch, ~1510.00 kbps avg |Дубляж|
Аудио #04: English: 48 kHz, DTS, 3/2 (L,C,R,l,r) + LFE ch, ~1510.00 kbps avg
Семпл-

Source-->Encode-->SA89-->Ebp





-

Ton-ik-->Toshik®




-

mInfo

Полное имя : R:\The.Imitation.Game.2014.1080p.BluRay.2xRus.Ukr.Eng.HDCLUB-Toshik.mkv
Формат : Matroska
Версия формата : Version 2
Размер файла : 19,3 Гбайт
Продолжительность : 1 ч. 54 м.
Общий поток : 24,2 Мбит/сек
Название фильма : The Imitation Game (2014).1080p.Rip by Toshik®
Дата кодирования : UTC 2017-02-05 11:14:17
Программа кодирования : mkvmerge v9.8.0 ('Kuglblids') 64bit
Библиотека кодирования : libebml v1.3.4 + libmatroska v1.4.5
Обложка : Yes
Attachments : cover.jpg
Видео
Идентификатор : 1
Формат : AVC
Формат/Информация : Advanced Video Codec
Профиль формата : High@L4.1
Параметр CABAC формата : Да
Параметр ReFrames формата : 5 кадров
Идентификатор кодека : V_MPEG4/ISO/AVC
Продолжительность : 1 ч. 54 м.
Битрейт : 18,2 Мбит/сек
Ширина : 1920 пикселей
Высота : 802 пикселя
Соотношение сторон : 2,40:1
Соотношение сторон в оригинале : 2,40:1
Режим частоты кадров : Постоянный
Частота кадров : 23,976 (24000/1001) кадра/сек
Цветовое пространство : YUV
Субдискретизация насыщенности : 4:2:0
Битовая глубина : 8 бит
Тип развёртки : Прогрессивная
Бит/(Пиксели*Кадры) : 0.493
Размер потока : 14,5 Гбайт (75%)
Заголовок : Rip by Toshik®
Библиотека кодирования : x264 core 148 r2744 b97ae06
Настройки программы : cabac=1 / ref=5 / deblock=1:-3:-3 / analyse=0x3:0x133 / me=esa / subme=11 / psy=1 / psy_rd=1.00:0.00 / mixed_ref=1 / me_range=24 / chroma_me=1 / trellis=2 / 8x8dct=1 / cqm=0 / deadzone=21,11 / fast_pskip=0 / chroma_qp_offset=-2 / threads=12 / lookahead_threads=3 / sliced_threads=0 / nr=0 / decimate=1 / interlaced=0 / bluray_compat=0 / constrained_intra=0 / bframes=16 / b_pyramid=2 / b_adapt=2 / b_bias=0 / direct=3 / weightb=1 / open_gop=0 / weightp=2 / keyint=240 / keyint_min=23 / scenecut=40 / intra_refresh=0 / rc_lookahead=60 / rc=2pass / mbtree=0 / bitrate=18188 / ratetol=1.0 / qcomp=0.65 / qpmin=0 / qpmax=69 / qpstep=4 / cplxblur=20.0 / qblur=0.5 / vbv_maxrate=62500 / vbv_bufsize=78125 / nal_hrd=none / filler=0 / ip_ratio=1.40 / pb_ratio=1.30 / aq=3:0.90 / zones=15845,15871,b=2.5/22043,22185,b=2.5/22377,22472,b=2.5/24397,24732,b=2.5/120193,120412,b=2.5/158250,164080,b=0.17
Язык : English
Default : Да
Forced : Нет
Аудио #1
Идентификатор : 2
Формат : DTS
Формат/Информация : Digital Theater Systems
Режим : 16
Параметр Endianness формата : Big
Идентификатор кодека : A_DTS
Продолжительность : 1 ч. 54 м.
Вид битрейта : Постоянный
Битрейт : 1510 Кбит/сек
Каналы : 6 каналов
Расположение каналов : Front: L C R, Side: L R, LFE
Частота : 48,0 КГц
Частота кадров : 93,750 кадра/сек (512 spf)
Битовая глубина : 24 бит
Метод сжатия : С потерями
Размер потока : 1,20 Гбайт (6%)
Заголовок : BD Rus
Язык : Russian
Default : Да
Forced : Нет
Аудио #2
Идентификатор : 3
Формат : DTS
Формат/Информация : Digital Theater Systems
Режим : 16
Параметр Endianness формата : Big
Идентификатор кодека : A_DTS
Продолжительность : 1 ч. 54 м.
Вид битрейта : Постоянный
Битрейт : 1509 Кбит/сек
Каналы : 6 каналов
Расположение каналов : Front: L C R, Side: L R, LFE
Частота : 48,0 КГц
Частота кадров : 93,750 кадра/сек (512 spf)
Битовая глубина : 24 бит
Метод сжатия : С потерями
Размер потока : 1,20 Гбайт (6%)
Заголовок : AVO, Матвеев
Язык : Russian
Default : Нет
Forced : Нет
Аудио #3
Идентификатор : 4
Формат : DTS
Формат/Информация : Digital Theater Systems
Режим : 16
Параметр Endianness формата : Big
Идентификатор кодека : A_DTS
Продолжительность : 1 ч. 54 м.
Вид битрейта : Постоянный
Битрейт : 1509 Кбит/сек
Каналы : 6 каналов
Расположение каналов : Front: L C R, Side: L R, LFE
Частота : 48,0 КГц
Частота кадров : 93,750 кадра/сек (512 spf)
Битовая глубина : 24 бит
Метод сжатия : С потерями
Размер потока : 1,20 Гбайт (6%)
Заголовок : Дубляж
Язык : Ukrainian
Default : Нет
Forced : Нет
Аудио #4
Идентификатор : 5
Формат : DTS
Формат/Информация : Digital Theater Systems
Режим : 16
Параметр Endianness формата : Big
Идентификатор кодека : A_DTS
Продолжительность : 1 ч. 54 м.
Вид битрейта : Постоянный
Битрейт : 1509 Кбит/сек
Каналы : 6 каналов
Расположение каналов : Front: L C R, Side: L R, LFE
Частота : 48,0 КГц
Частота кадров : 93,750 кадра/сек (512 spf)
Битовая глубина : 24 бит
Метод сжатия : С потерями
Размер потока : 1,20 Гбайт (6%)
Заголовок : DTS 5.1 @ 1536 kbps
Язык : English
Default : Нет
Forced : Нет
Текст #1
Идентификатор : 6
Формат : UTF-8
Идентификатор кодека : S_TEXT/UTF8
Идентификатор кодека/Информация : UTF-8 Plain Text
Продолжительность : 1 ч. 48 м.
Битрейт : 2 бит/сек
Count of elements : 20
Размер потока : 1,91 Кбайт (0%)
Заголовок : Forced
Язык : Russian
Default : Да
Forced : Да
Текст #2
Идентификатор : 7
Формат : UTF-8
Идентификатор кодека : S_TEXT/UTF8
Идентификатор кодека/Информация : UTF-8 Plain Text
Продолжительность : 1 ч. 49 м.
Битрейт : 111 бит/сек
Count of elements : 1767
Размер потока : 89,5 Кбайт (0%)
Заголовок : A.Matveev (full)
Язык : Russian
Default : Нет
Forced : Нет
Текст #3
Идентификатор : 8
Формат : UTF-8
Идентификатор кодека : S_TEXT/UTF8
Идентификатор кодека/Информация : UTF-8 Plain Text
Продолжительность : 1 ч. 48 м.
Битрейт : 109 бит/сек
Count of elements : 1836
Размер потока : 86,8 Кбайт (0%)
Заголовок : Notabenoid (full)
Язык : Russian
Default : Нет
Forced : Нет
Текст #4
Идентификатор : 9
Формат : UTF-8
Идентификатор кодека : S_TEXT/UTF8
Идентификатор кодека/Информация : UTF-8 Plain Text
Продолжительность : 1 ч. 49 м.
Битрейт : 119 бит/сек
Count of elements : 1875
Размер потока : 95,1 Кбайт (0%)
Заголовок : Cotranslate (full)
Язык : Russian
Default : Нет
Forced : Нет
Текст #5
Идентификатор : 10
Формат : UTF-8
Идентификатор кодека : S_TEXT/UTF8
Идентификатор кодека/Информация : UTF-8 Plain Text
Продолжительность : 1 ч. 48 м.
Битрейт : 2 бит/сек
Count of elements : 22
Размер потока : 1,81 Кбайт (0%)
Заголовок : Forced
Язык : Ukrainian
Default : Нет
Forced : Нет
Текст #6
Идентификатор : 11
Формат : UTF-8
Идентификатор кодека : S_TEXT/UTF8
Идентификатор кодека/Информация : UTF-8 Plain Text
Продолжительность : 1 ч. 49 м.
Битрейт : 111 бит/сек
Count of elements : 1842
Размер потока : 89,0 Кбайт (0%)
Заголовок : full
Язык : Ukrainian
Default : Нет
Forced : Нет
Текст #7
Идентификатор : 12
Формат : UTF-8
Идентификатор кодека : S_TEXT/UTF8
Идентификатор кодека/Информация : UTF-8 Plain Text
Продолжительность : 1 ч. 45 м.
Битрейт : 65 бит/сек
Count of elements : 1839
Размер потока : 50,9 Кбайт (0%)
Заголовок : full
Язык : English
Default : Нет
Forced : Нет
Текст #8
Идентификатор : 13
Формат : UTF-8
Идентификатор кодека : S_TEXT/UTF8
Идентификатор кодека/Информация : UTF-8 Plain Text
Продолжительность : 1 ч. 46 м.
Битрейт : 69 бит/сек
Count of elements : 1593
Размер потока : 54,1 Кбайт (0%)
Заголовок : SDH
Язык : English
Default : Нет
Forced : Нет
Меню
00:00:00.000 : :Chapter 01
00:05:32.373 : :Chapter 02
00:15:04.653 : :Chapter 03
00:26:25.125 : :Chapter 04
00:34:00.705 : :Chapter 05
00:41:18.225 : :Chapter 06
00:50:34.489 : :Chapter 07
00:59:23.101 : :Chapter 08
01:09:35.087 : :Chapter 09
01:18:45.053 : :Chapter 10
01:26:09.998 : :Chapter 11
01:35:09.912 : :Chapter 12
01:41:38.175 : :Chapter 13
01:50:06.600 : :Chapter 14
01:54:12.053 : :Chapter 15

-
* Гибридный рип, сделан на основе двух изданий, японца и канадца. У японца чуть больше шума, у канадца-картинка более лысая, однако у японского издания артефакты на темном. Поэтому был сделан гибрид-светлое из японца, темное с канадца+ в японском издании был небольшой брак в начале (картинка очень темная).
JPN-->Can-->Hybrid


* Сохранены оригинальные главы как на Blu-ray;
* Озвучка Алексея Матвеева по заказу будулайроманов. Перевод: MartinaG. Работа со звуком: Переводман;
* Переклад субтитрів українською мову: химерка@hurtom.
[Profile]  [PM] 
Display posts:    
Reply to topic

Current time is: 28-Nov 10:13

All times are UTC + 2



You cannot post new topics in this forum
You cannot reply to topics in this forum
You cannot edit your posts in this forum
You cannot delete your posts in this forum
You cannot vote in polls in this forum
You cannot attach files in this forum
You cannot download files in this forum