Леди в белом / Lady In White (Фрэнк ЛаЛоджиа / Frank La Loggia) [1988, США, ужасы, триллер, фэнтези, BDRemux 1080p] DVO + AVO + Sub Eng + Original Eng

Reply to topic
 
Author
Message

Faust ®

Gender: Unknown

Longevity: 9 years 2 months

Posts: 14058

Reputation: 0 [+] [-]

Faust · Post 21-Feb-2017 13:45

[Quote] 

Леди в белом / Lady In White
-Страна: США
Жанр: ужасы, триллер, фэнтези
Год выпуска: 1988
Продолжительность: 01:57:50-Перевод 1: Профессиональный (двухголосый) НТВ+
Перевод 2: Авторский (одноголосый закадровый) Иванов-Cубтитры: английские
Оригинальная аудиодорожка: английский-Режиссер: Фрэнк ЛаЛоджиа / Frank La Loggia-В ролях: Лукас Хаас, Лен Кариу, Алекс Рокко, Кэтрин Хелмонд Helmond, Рената Ванни, Джейсон Прессон-Описание:
Оказавшийся запертым в школьном туалете на Хэллоуин 1962 года юный Фрэнк встречает призраки девочки и человека, убившего её много лет назад. Вскоре после этого происшествия Фрэнку начинают являться странные видения, и в частности призрак загадочной женщины в белом, которая ищет свою пропавшую дочь.-Сэмпл: Скачать-Тип релиза: BDRemux 1080p
Контейнер: MKV-Видео: MPEG-4 AVC Video; 34071 kbps; 1080p; 23.976 fps; 16:9; High Profile 4.1
Аудио 1: Russian; AC3; 48.0 KHz; 2ch; 192 Kbps DVO
Аудио 2: Russian; AC3; 48.0 KHz; 2ch; 192 Kbps AVO
Аудио 3: English; DTS-MA; 48.0 KHz; 6ch; 3 617 kbps (DTS Core: 5.1 / 48 kHz / 1509 kbps / 24-bit)
Аудио 4: English; AC3; 48.0 KHz; 2ch; 192 Kbps Commentary

MediaInfo

Format : Matroska
Format version : Version 4 / Version 2
File size : 31.5 GiB
Duration : 1 h 57 min
Overall bit rate : 38.3 Mb/s
Encoded date : UTC 2017-02-07 06:49:13
Writing application : mkvmerge v8.3.0 ('Over the Horizon') 64bit
Writing library : libebml v1.3.1 + libmatroska v1.4.2
Attachments : poster.jpg
Video
ID : 1
Format : AVC
Format/Info : Advanced Video Codec
Format profile : High@L4.1
Format settings, CABAC : Yes
Format settings, ReFrames : 4 frames
Codec ID : V_MPEG4/ISO/AVC
Duration : 1 h 57 min
Bit rate mode : Constant
Bit rate : 35.0 Mb/s
Width : 1 920 pixels
Height : 1 080 pixels
Display aspect ratio : 16:9
Frame rate mode : Constant
Frame rate : 23.976 (24000/1001) FPS
Color space : YUV
Chroma subsampling : 4:2:0
Bit depth : 8 bits
Scan type : Progressive
Bits/(Pixel*Frame) : 0.704
Stream size : 28.0 GiB (89%)
Default : Yes
Forced : No
Audio #1
ID : 2
Format : AC-3
Format/Info : Audio Coding 3
Mode extension : CM (complete main)
Format settings, Endianness : Big
Codec ID : A_AC3
Duration : 1 h 57 min
Bit rate mode : Constant
Bit rate : 192 kb/s
Channel(s) : 2 channels
Channel positions : Front: L R
Sampling rate : 48.0 kHz
Frame rate : 31.250 FPS (1536 spf)
Bit depth : 16 bits
Compression mode : Lossy
Stream size : 162 MiB (1%)
Title : DVO НТВ+
Language : Russian
Default : Yes
Forced : No
Audio #2
ID : 3
Format : AC-3
Format/Info : Audio Coding 3
Mode extension : CM (complete main)
Format settings, Endianness : Big
Codec ID : A_AC3
Duration : 1 h 57 min
Bit rate mode : Constant
Bit rate : 192 kb/s
Channel(s) : 2 channels
Channel positions : Front: L R
Sampling rate : 48.0 kHz
Frame rate : 31.250 FPS (1536 spf)
Bit depth : 16 bits
Compression mode : Lossy
Stream size : 162 MiB (1%)
Title : AVO Иванов
Language : Russian
Default : No
Forced : No
Audio #3
ID : 4
Format : DTS
Format/Info : Digital Theater Systems
Format profile : MA / Core
Mode : 16
Format settings, Endianness : Big
Codec ID : A_DTS
Duration : 1 h 57 min
Bit rate mode : Variable / Constant
Bit rate : 3 617 kb/s / 1 509 kb/s
Channel(s) : 6 channels
Channel positions : Front: L C R, Side: L R, LFE
Sampling rate : 48.0 kHz
Frame rate : 93.750 FPS (512 spf)
Bit depth : 24 bits
Compression mode : Lossless / Lossy
Stream size : 2.98 GiB (9%)
Language : English
Default : No
Forced : No
Audio #4
ID : 5
Format : AC-3
Format/Info : Audio Coding 3
Mode extension : CM (complete main)
Format settings, Endianness : Big
Codec ID : A_AC3
Duration : 1 h 57 min
Bit rate mode : Constant
Bit rate : 192 kb/s
Channel(s) : 2 channels
Channel positions : Front: L R
Sampling rate : 48.0 kHz
Frame rate : 31.250 FPS (1536 spf)
Bit depth : 16 bits
Compression mode : Lossy
Stream size : 162 MiB (1%)
Title : Commentary
Language : English
Default : No
Forced : No
Text
ID : 6
Format : UTF-8
Codec ID : S_TEXT/UTF8
Codec ID/Info : UTF-8 Plain Text
Duration : 1 h 51 min
Bit rate : 32 b/s
Count of elements : 724
Stream size : 26.3 KiB (0%)
Language : English
Default : No
Forced : No
Menu
00:00:00.000 : en:00:00:00.000
00:09:21.144 : en:00:09:21.144
00:20:08.707 : en:00:20:08.707
00:29:32.729 : en:00:29:32.729
00:38:22.050 : en:00:38:22.050
00:48:49.051 : en:00:48:49.051
01:00:07.521 : en:01:00:07.521
01:09:14.108 : en:01:09:14.108
01:17:48.289 : en:01:17:48.289
01:28:57.415 : en:01:28:57.415
01:39:02.603 : en:01:39:02.603
01:49:40.616 : en:01:49:40.616

Скриншоты

[Profile]  [PM] 
Display posts:    
Reply to topic

Current time is: 01-Dec 04:47

All times are UTC + 2



You cannot post new topics in this forum
You cannot reply to topics in this forum
You cannot edit your posts in this forum
You cannot delete your posts in this forum
You cannot vote in polls in this forum
You cannot attach files in this forum
You cannot download files in this forum