Джимми – покоритель Америки / Jimmy Vestvood: Amerikan Hero (Джонатан Кесселман / Jonathan Kesselman) [2016, США, комедия, BDRip 720p] Dub (iTunes) + Sub Eng + Original Eng

Reply to topic
 
Author
Message

Faust ®

Gender: Unknown

Longevity: 9 years 9 months

Posts: 15476

Reputation: 0 [+] [-]

Faust · Post 21-Feb-2017 17:50

[Quote] 

Джимми – покоритель Америки / Jimmy Vestvood: Amerikan Hero
Страна: США
Студия: Buffalo 8 Productions, Oky Doky Productions, Perfect Nose Productions
Жанр: комедия
Год выпуска: 2016
Продолжительность: 01:23:40
Перевод: Профессиональный (дублированный) iTunes
Cубтитры: английские
Оригинальная аудиодорожка: английский
Режиссер: Джонатан Кесселман / Jonathan Kesselman
В ролях: Маз Джобрани, Джон Хёрд, Дианна Руссо, Маршалл Манеш, Мэттью Глэйв, Шейла Ванд, Сэм Голзари, Мэтт Баллард, Навид Негабан, Вида Гахремани
Описание: Если свои герои заканчиваются — их завозят из заграницы! Джимми выиграл «гринкарту» в лотерею и на всех парах мчится в Штаты. Когда Борат уже забыт, а Бонд пьет свой чай с оливками, пора готовиться к новой встряске! Ой держись, Америка!

Тип релиза: BDRip 720p
Контейнер: MKV
Видео: MPEG-4 AVC, 4800 Кбит/с, 1280x720, 23,976 fps
Аудио: Rus, AC3, 384 kb/s (6 ch), 48 kHz
Аудио 2: Eng, AC3, 640 kb/s (6 ch), 48 kHz
Формат субтитров: softsub (SRT)

MediaInfo

x264 [info]: frame I:1766 Avg QP:11.72 size:162920
x264 [info]: frame P:28115 Avg QP:15.32 size: 48669
x264 [info]: frame B:89991 Avg QP:16.98 size: 14935
Format : Matroska
Format version : Version 4 / Version 2
File size : 3.39 GiB
Duration : 1h 23mn
Overall bit rate : 5 827 Kbps
Movie name : Джимми. (Tonik)
Encoded date : UTC 2017-02-18 19:11:34
Writing application : mkvmerge v7.1.0 ('Good Love') 64bit built on Jul 27 2014 13:06:55
Writing library : libebml v1.3.0 + libmatroska v1.4.1
_STATISTICS_WRITING_APP : mkvmerge v7.1.0 ('Good Love') 64bit built on Jul 27 2014 13:06:55
_STATISTICS_WRITING_DATE_UTC : 2017-02-18 19:11:34
_STATISTICS_TAGS : BPS DURATION NUMBER_OF_FRAMES NUMBER_OF_BYTES
DURATION : 01:23:19.648000000
NUMBER_OF_FRAMES : 156239
NUMBER_OF_BYTES : 239983104
Video
ID : 1
Format : AVC
Format/Info : Advanced Video Codec
Format profile : High@L4.1
Format settings, CABAC : Yes
Format settings, ReFrames : 9 frames
Codec ID : V_MPEG4/ISO/AVC
Bit rate : 4 800 Kbps
Width : 1 280 pixels
Height : 720 pixels
Display aspect ratio : 16:9
Frame rate mode : Variable
Original frame rate : 23.976 fps
Color space : YUV
Chroma subsampling : 4:2:0
Bit depth : 8 bits
Scan type : Progressive
Bits/(Pixel*Frame) : 0.217
Writing library : x264 core 148 r2705 3f5ed56
Encoding settings : cabac=1 / ref=9 / deblock=1:-3:-3 / analyse=0x3:0x133 / me=umh / subme=10 / psy=1 / psy_rd=1.00:0.00 / mixed_ref=1 / me_range=32 / chroma_me=1 / trellis=2 / 8x8dct=1 / cqm=0 / deadzone=21,11 / fast_pskip=0 / chroma_qp_offset=-2 / threads=18 / lookahead_threads=3 / sliced_threads=0 / slices=4 / nr=0 / decimate=0 / interlaced=0 / bluray_compat=0 / constrained_intra=0 / bframes=8 / b_pyramid=2 / b_adapt=2 / b_bias=0 / direct=3 / weightb=1 / open_gop=0 / weightp=2 / keyint=250 / keyint_min=23 / scenecut=40 / intra_refresh=0 / rc_lookahead=40 / rc=2pass / mbtree=0 / bitrate=4800 / ratetol=1.0 / qcomp=0.65 / qpmin=0 / qpmax=51 / qpstep=4 / cplxblur=20.0 / qblur=0.5 / vbv_maxrate=62500 / vbv_bufsize=78125 / nal_hrd=none / filler=0 / ip_ratio=1.40 / pb_ratio=1.30 / aq=3:0.75 / zones=0,1472,b=2
Language : English
Default : Yes
Forced : No
_STATISTICS_WRITING_APP : mkvmerge v7.1.0 ('Good Love') 64bit built on Jul 27 2014 13:06:55
_STATISTICS_WRITING_DATE_UTC : 2017-02-18 19:11:34
_STATISTICS_TAGS : BPS DURATION NUMBER_OF_FRAMES NUMBER_OF_BYTES
DURATION : 01:23:19.662000000
NUMBER_OF_FRAMES : 119872
NUMBER_OF_BYTES : 3000067027
Audio #1
ID : 2
Format : AC-3
Format/Info : Audio Coding 3
Mode extension : CM (complete main)
Format settings, Endianness : Big
Codec ID : A_AC3
Duration : 1h 23mn
Bit rate mode : Constant
Bit rate : 384 Kbps
Channel(s) : 6 channels
Channel positions : Front: L C R, Side: L R, LFE
Sampling rate : 48.0 KHz
Bit depth : 16 bits
Compression mode : Lossy
Stream size : 229 MiB (7%)
Title : iTunes
Language : Russian
Default : Yes
Forced : No
Audio #2
ID : 3
Format : AC-3
Format/Info : Audio Coding 3
Mode extension : CM (complete main)
Format settings, Endianness : Big
Codec ID : A_AC3
Duration : 1h 23mn
Bit rate mode : Constant
Bit rate : 640 Kbps
Channel(s) : 6 channels
Channel positions : Front: L C R, Side: L R, LFE
Sampling rate : 48.0 KHz
Bit depth : 16 bits
Compression mode : Lossy
Stream size : 381 MiB (11%)
Language : English
Default : No
Forced : No
Text
ID : 4
Format : UTF-8
Codec ID : S_TEXT/UTF8
Codec ID/Info : UTF-8 Plain Text
Language : English
Default : No
Forced : No
Menu
00:00:00.000 : en:1
00:06:39.316 : en:2
00:13:27.140 : en:3
00:23:34.330 : en:4
00:28:44.514 : en:5
00:34:26.022 : en:6
00:41:18.142 : en:7
00:48:32.660 : en:8
00:55:47.302 : en:9
01:02:38.713 : en:10
01:09:37.006 : en:11
01:18:24.450 : en:12

Скриншоты

замена русской дороги
[Profile]  [PM] 
Display posts:    
Reply to topic

Current time is: 21-Jun 19:24

All times are UTC + 2



You cannot post new topics in this forum
You cannot reply to topics in this forum
You cannot edit your posts in this forum
You cannot delete your posts in this forum
You cannot vote in polls in this forum
You cannot attach files in this forum
You cannot download files in this forum