187 / One Eight Seven (Кевин Рейнольдс / Kevin Reynolds) [1997, США, триллер, драма, BDRip 720p] [GER Transfer] DVO + AVO (Гаврилов) + Sub Rus, Eng + Original Eng

Reply to topic
 
Author
Message

Faust ®

Gender: Unknown

Longevity: 9 years 2 months

Posts: 14058

Reputation: 0 [+] [-]

Faust · Post 21-Feb-2017 17:50

[Quote] 

187 / One Eight Seven
Страна: США
Студия: Icon Entertainment International, Icon Productions, R U Dun Productions
Жанр: триллер, драма
Год выпуска: 1997
Продолжительность: 01:59:34
Перевод 1: Профессиональный (двухголосый закадровый)
Перевод 2: Авторский (одноголосый закадровый) А.Гаврилов
Cубтитры: русские, английские
Оригинальная аудиодорожка: английский
Режиссер: Кевин Рейнольдс / Kevin Reynolds
В ролях: Сэмюэл Л. Джексон, Клифтон Коллинз мл., Джон Хёрд, Тони Плана, Энтвон Тэннер, Ричард Рили, Келли Роуэн, Карина Арройяве, Лобо Себастьян, Джек Келер
Описание: Где обитают ублюдки? Учитель из Бруклина Тревор Гарфилд видит их каждый день в школе. Это готовые бандиты, от которых можно ждать чего угодно. Один из них из мести совершает попытку убить Гарфилда.
После этого Гарфилд переезжает в Лос-Анджелес и ... оказывается в таком же дерьме. Когда его терпению пришел конец, он заставил подонков расплачиваться кровью за каждый совершенный проступок.- -Сэмпл: https://yadi.sk/i/WG8mlzQf3EEPg6
Тип релиза: BDRip 720p [MGK]
Контейнер: MKV
Видео: h.264, 1280x690, 23.976 fps, 9474 kbps
Аудио #1: Russian: AC3 2.0, 48 kHz, 192 kbps avg |Двухголосый закадровый|
Аудио #2: Russian: DTS 5.1, 48 kHz/16-bit, 1536 kbps avg |Одноголосый закадровый, А.Гаврилов|
Аудио #3: English: DTS 5.1, 48 kHz/24-bit, 1536 kbps avg |Оригинал|
Аудио #4: English: DTS 2.0, 48 kHz/24-bit, 318 kbps avg |Commentary with Director Kevin Reynolds|
Формат субтитров: softsub (SRT)
  • Сохранены оригинальные главы как на Blu-ray.
  • За дорожку №1 и русские субтитры большое спасибо Lenape.
  • Перевод (чистый голос) А.Гаврилова выкуплен в рамках сервиса "Озвучивание". Спонсоры - HDCLUB: gelom, tambov68, Fireware, goriathid; E180: chontvari, oleg-k, Tagansky, luka69, masta, Nadoelo, ylnian1986, User, uchitel538, Iceman, idalgo.
  • Сравнение старого и нового видеоряда

MediaInfo

Полное имя : F:\One.Eight.Seven.1997.720p.BluRay.2xRus.2xEng.HDCLUB.mkv
Формат : Matroska
Версия формата : Version 2
Размер файла : 11,1 Гбайт
Продолжительность : 1 ч. 59 м.
Общий поток : 13,3 Мбит/сек
Название фильма : One Eight Seven (1997) - Release for HDCLUB
Дата кодирования : UTC 2017-02-13 01:11:04
Программа кодирования : mkvmerge v3.4.0 ('Rapunzel') сборка от May 15 2010 09:38:20
Библиотека кодирования : libebml v0.8.0 + libmatroska v0.9.0
Обложка : Yes
Attachments : cover.jpg / logfile.log
Видео
Идентификатор : 1
Формат : AVC
Формат/Информация : Advanced Video Codec
Профиль формата : High@L4.1
Параметр CABAC формата : Да
Параметр ReFrames формата : 9 кадров
Идентификатор кодека : V_MPEG4/ISO/AVC
Продолжительность : 1 ч. 59 м.
Битрейт : 9474 Кбит/сек
Ширина : 1280 пикселей
Высота : 690 пикселей
Соотношение сторон : 1,85:1
Режим частоты кадров : Постоянный
Частота кадров : 23,976 (24000/1001) кадра/сек
Цветовое пространство : YUV
Субдискретизация насыщенности : 4:2:0
Битовая глубина : 8 бит
Тип развёртки : Прогрессивная
Бит/(Пиксели*Кадры) : 0.447
Размер потока : 7,91 Гбайт (71%)
Заголовок : One Eight Seven (1997) - Release for HDCLUB
Библиотека кодирования : x264 core 148 r2744kMod b97ae06
Настройки программы : cabac=1 / ref=9 / deblock=1:-3:-3 / analyse=0x3:0x133 / me=umh / subme=11 / psy=1 / fade_compensate=0.00 / psy_rd=1.05:0.00 / mixed_ref=1 / me_range=32 / chroma_me=1 / trellis=2 / 8x8dct=1 / cqm=0 / deadzone=21,11 / fast_pskip=0 / chroma_qp_offset=-2 / threads=12 / lookahead_threads=3 / sliced_threads=0 / nr=0 / decimate=0 / interlaced=0 / bluray_compat=0 / constrained_intra=0 / bframes=11 / b_pyramid=2 / b_adapt=2 / b_bias=0 / direct=3 / weightb=1 / open_gop=0 / weightp=2 / keyint=240 / keyint_min=23 / scenecut=40 / intra_refresh=0 / rc_lookahead=50 / rc=crf / mbtree=0 / crf=16.5000 / qcomp=0.60 / qpmin=0 / qpmax=69 / qpstep=4 / vbv_maxrate=62500 / vbv_bufsize=78125 / crf_max=0.0 / nal_hrd=none / filler=0 / ip_ratio=1.30 / pb_ratio=1.20 / aq=3:0.80
Язык : English
Default : Да
Forced : Нет
Аудио #1
Идентификатор : 2
Формат : AC-3
Формат/Информация : Audio Coding 3
Расширение режима : CM (complete main)
Параметр Endianness формата : Big
Идентификатор кодека : A_AC3
Продолжительность : 1 ч. 59 м.
Вид битрейта : Постоянный
Битрейт : 192 Кбит/сек
Каналы : 2 канала
Расположение каналов : Front: L R
Частота : 48,0 КГц
Частота кадров : 31,250 кадров/сек (1536 spf)
Битовая глубина : 16 бит
Метод сжатия : С потерями
Размер потока : 164 Мбайт (1%)
Заголовок : Двухголосый закадровый
Язык : Russian
Default : Да
Forced : Нет
Аудио #2
Идентификатор : 3
Формат : DTS
Формат/Информация : Digital Theater Systems
Режим : 16
Параметр Endianness формата : Big
Идентификатор кодека : A_DTS
Продолжительность : 1 ч. 59 м.
Вид битрейта : Постоянный
Битрейт : 1509 Кбит/сек
Каналы : 6 каналов
Расположение каналов : Front: L C R, Side: L R, LFE
Частота : 48,0 КГц
Частота кадров : 93,750 кадра/сек (512 spf)
Битовая глубина : 16 бит
Метод сжатия : С потерями
Размер потока : 1,26 Гбайт (11%)
Заголовок : Одноголосый закадровый, А.Гаврилов
Язык : Russian
Default : Нет
Forced : Нет
Аудио #3
Идентификатор : 4
Формат : DTS
Формат/Информация : Digital Theater Systems
Режим : 16
Параметр Endianness формата : Big
Идентификатор кодека : A_DTS
Продолжительность : 1 ч. 59 м.
Вид битрейта : Постоянный
Битрейт : 1509 Кбит/сек
Каналы : 6 каналов
Расположение каналов : Front: L C R, Side: L R, LFE
Частота : 48,0 КГц
Частота кадров : 93,750 кадра/сек (512 spf)
Битовая глубина : 24 бит
Метод сжатия : С потерями
Размер потока : 1,26 Гбайт (11%)
Заголовок : English
Язык : English
Default : Нет
Forced : Нет
Аудио #4
Идентификатор : 5
Формат : DTS
Формат/Информация : Digital Theater Systems
Режим : 16
Параметр Endianness формата : Big
Идентификатор кодека : A_DTS
Продолжительность : 1 ч. 59 м.
Вид битрейта : Постоянный
Битрейт : 318 Кбит/сек
Каналы : 2 канала
Расположение каналов : Front: L R
Частота : 48,0 КГц
Частота кадров : 93,750 кадра/сек (512 spf)
Битовая глубина : 24 бит
Метод сжатия : С потерями
Размер потока : 272 Мбайт (2%)
Заголовок : Commentary with Director Kevin Reynolds
Язык : English
Default : Нет
Forced : Нет
Текст #1
Идентификатор : 6
Формат : UTF-8
Идентификатор кодека : S_TEXT/UTF8
Идентификатор кодека/Информация : UTF-8 Plain Text
Заголовок : Russian
Язык : Russian
Default : Нет
Forced : Нет
Текст #2
Идентификатор : 7
Формат : UTF-8
Идентификатор кодека : S_TEXT/UTF8
Идентификатор кодека/Информация : UTF-8 Plain Text
Заголовок : English
Язык : English
Default : Нет
Forced : Нет
Меню
00:00:00.000 : :Chapter 01
00:09:26.816 : :Chapter 02
00:23:24.277 : :Chapter 03
00:29:41.863 : :Chapter 04
00:39:22.068 : :Chapter 05
00:55:20.150 : :Chapter 06
01:10:50.788 : :Chapter 07
01:22:41.623 : :Chapter 08
01:32:32.088 : :Chapter 09
01:40:31.150 : :Chapter 10
01:50:21.573 : :Chapter 11

Source (Germany) vs Encode vs EbP (old source Denmark)




Скриншоты

[Profile]  [PM] 
Display posts:    
Reply to topic

Current time is: 25-Nov 13:41

All times are UTC + 2



You cannot post new topics in this forum
You cannot reply to topics in this forum
You cannot edit your posts in this forum
You cannot delete your posts in this forum
You cannot vote in polls in this forum
You cannot attach files in this forum
You cannot download files in this forum