Зубастики / Critters (Стивен Херек / Stephen Herek) [1986, США, ужасы, фантастика, боевик, комедия, WEB-DL 1080p] DVO (ИНИС) + MVO (СВ-Дубль) + 2x AVO (Гаврилов, Кузнецов) + Sub Rus, Eng + Original Eng

Reply to topic
 
Author
Message

Faust ®

Gender: Unknown

Longevity: 9 years 2 months

Posts: 14058

Reputation: 0 [+] [-]

Faust · Post 21-Feb-2017 17:50

[Quote] 

18.02.17 раздача обновлена, добавлен перевод СВ-Дубль.-Зубастики / Critters
Страна: США
Жанр: ужасы, фантастика, боевик, комедия
Год выпуска: 1986
Продолжительность: 01:25:54
Перевод 1: Профессиональный (двухголосый закадровый) ИНИС
Перевод 2: Профессиональный (многоголосый закадровый) СВ-Дубль
Перевод 3: Авторский (одноголосый закадровый) Андрей Гаврилов
Перевод 4: Авторский (одноголосый закадровый) Сергей Кузнецов
Cубтитры: русские, английские
Оригинальная аудиодорожка: английский
Режиссер: Стивен Херек / Stephen Herek
В ролях: Ди Уоллес-Стоун, М. Эммет Уолш, Билли Грин Буш, Скотт Граймз, Надин Ван дер Велде, Дон Кит Оппер, Билли Зейн, Итэн Филлипс, Терренс Манн, Джереми Лоуренс...
Описание: Они не вышли ростом, но по свирепости с ними не сравнится ни одно земное существо — это Зубастики! Мохнатые безжалостные твари с ужасающей пастью прибыли из космоса, чтобы уничтожить цивилизацию людей.
И начали они с обычной сельской фермы в Канзасе, где сжирают всё, что попадается им на зуб (в том числе и людей). Хорошо, что в космосе есть ещё и отважные герои, которые приходят на помощь перепуганным местным жителям. Только объединенные усилия и хитроумная стратегия помогут победить прожорливых инопланетных зверушек.
Доп. информация: Оцифровка перевода Кузнецова - leha1975. Запись перевода СВ-Дубль - ActaBiZz. Перевод Гаврилова отсюда. Перевод ИНИС с DVD от Союз-Видео. Синхронизация звука - Dreven.
Сэмпл: http://sendfile.su/1310046
Тип релиза: WEB-DL 1080p
Контейнер: MKV
Видео: 1920x1080 (16:9), 23.976 fps, AVC, ~10.5 Mbps, 0.211 bits/pixel
Аудио 1: Russian, 48.0 KHz, AC3, 6 ch, 448 Kbps - ИНИС
Аудио 2: Russian, 48.0 KHz, AC3, 2 ch, 192 Kbps - СВ-Дубль
Аудио 3: Russian, 48.0 KHz, AC3, 6 ch, 448 Kbps - Андрей Гаврилов
Аудио 4: Russian, 48.0 KHz, AC3, 2 ch, 192 Kbps - Сергей Кузнецов
Аудио 5: English, 48.0 KHz, AC3, 6 ch, 448 Kbps
Аудио 6: English, 48.0 KHz, AC3+, 2 ch, 224 Kbps - WEB-DL

Сравнение с WEB-DL 720p

720p | 1080p




MediaInfo

General
Unique ID : 175884548595570103927052017941088522965 (0x845221C383087127A04F07C31C0352D5)
Complete name : D:\Critters. WEB-DL 1080p.mkv
Format : Matroska
Format version : Version 4 / Version 2
File size : 7.62 GiB
Duration : 1h 25mn
Overall bit rate mode : Variable
Overall bit rate : 12.7 Mbps
Encoded date : UTC 2017-02-18 06:38:18
Writing application : mkvmerge v9.8.0 ('Kuglblids') 64bit
Writing library : libebml v1.3.4 + libmatroska v1.4.5
Video
ID : 1
Format : AVC
Format/Info : Advanced Video Codec
Format profile : High@L4
Format settings, CABAC : Yes
Format settings, ReFrames : 4 frames
Codec ID : V_MPEG4/ISO/AVC
Duration : 1h 25mn
Bit rate mode : Variable
Bit rate : 10.7 Mbps
Maximum bit rate : 15.0 Mbps
Width : 1 920 pixels
Height : 1 080 pixels
Display aspect ratio : 16:9
Frame rate mode : Constant
Frame rate : 23.976 (24000/1001) fps
Color space : YUV
Chroma subsampling : 4:2:0
Bit depth : 8 bits
Scan type : Progressive
Bits/(Pixel*Frame) : 0.216
Stream size : 6.45 GiB (85%)
Writing library : x264 core 148 r2623 d5b2374
Encoding settings : cabac=1 / ref=4 / deblock=1:-1:-1 / analyse=0x3:0x133 / me=umh / subme=9 / psy=1 / psy_rd=1.00:0.15 / mixed_ref=1 / me_range=24 / chroma_me=1 / trellis=2 / 8x8dct=1 / cqm=0 / deadzone=21,11 / fast_pskip=1 / chroma_qp_offset=-3 / threads=34 / lookahead_threads=5 / sliced_threads=0 / nr=150 / decimate=1 / interlaced=0 / bluray_compat=0 / constrained_intra=0 / bframes=8 / b_pyramid=2 / b_adapt=2 / b_bias=0 / direct=3 / weightb=1 / open_gop=0 / weightp=2 / keyint=120 / keyint_min=61 / scenecut=0 / intra_refresh=0 / rc_lookahead=120 / rc=crf / mbtree=1 / crf=18.0 / qcomp=0.60 / qpmin=0 / qpmax=69 / qpstep=4 / vbv_maxrate=15000 / vbv_bufsize=31250 / crf_max=0.0 / nal_hrd=vbr / filler=0 / ip_ratio=1.40 / aq=3:1.00
Language : English
Default : Yes
Forced : No
Color range : Limited
Color primaries : BT.709
Transfer characteristics : BT.709
Matrix coefficients : BT.709
Audio #1
ID : 2
Format : AC-3
Format/Info : Audio Coding 3
Mode extension : CM (complete main)
Format settings, Endianness : Big
Codec ID : A_AC3
Duration : 1h 25mn
Bit rate mode : Constant
Bit rate : 448 Kbps
Channel(s) : 6 channels
Channel positions : Front: L C R, Side: L R, LFE
Sampling rate : 48.0 KHz
Frame rate : 31.250 fps (1536 spf)
Compression mode : Lossy
Stream size : 275 MiB (4%)
Title : ИНИС
Language : Russian
Default : Yes
Forced : No
Audio #2
ID : 3
Format : AC-3
Format/Info : Audio Coding 3
Mode extension : CM (complete main)
Format settings, Endianness : Big
Codec ID : A_AC3
Duration : 1h 25mn
Bit rate mode : Constant
Bit rate : 192 Kbps
Channel(s) : 2 channels
Channel positions : Front: L R
Sampling rate : 48.0 KHz
Frame rate : 31.250 fps (1536 spf)
Compression mode : Lossy
Stream size : 118 MiB (2%)
Title : СВ-Дубль
Language : Russian
Default : No
Forced : No
Audio #3
ID : 4
Format : AC-3
Format/Info : Audio Coding 3
Mode extension : CM (complete main)
Format settings, Endianness : Big
Codec ID : A_AC3
Duration : 1h 25mn
Bit rate mode : Constant
Bit rate : 448 Kbps
Channel(s) : 6 channels
Channel positions : Front: L C R, Side: L R, LFE
Sampling rate : 48.0 KHz
Frame rate : 31.250 fps (1536 spf)
Compression mode : Lossy
Stream size : 275 MiB (4%)
Title : Андрей Гаврилов
Language : Russian
Default : No
Forced : No
Audio #4
ID : 5
Format : AC-3
Format/Info : Audio Coding 3
Mode extension : CM (complete main)
Format settings, Endianness : Big
Codec ID : A_AC3
Duration : 1h 25mn
Bit rate mode : Constant
Bit rate : 192 Kbps
Channel(s) : 2 channels
Channel positions : Front: L R
Sampling rate : 48.0 KHz
Frame rate : 31.250 fps (1536 spf)
Compression mode : Lossy
Stream size : 118 MiB (2%)
Title : Сергей Кузнецов
Language : Russian
Default : No
Forced : No
Audio #5
ID : 6
Format : AC-3
Format/Info : Audio Coding 3
Mode extension : CM (complete main)
Format settings, Endianness : Big
Codec ID : A_AC3
Duration : 1h 25mn
Bit rate mode : Constant
Bit rate : 448 Kbps
Channel(s) : 6 channels
Channel positions : Front: L C R, Side: L R, LFE
Sampling rate : 48.0 KHz
Frame rate : 31.250 fps (1536 spf)
Compression mode : Lossy
Stream size : 275 MiB (4%)
Language : English
Default : No
Forced : No
Audio #6
ID : 7
Format : E-AC-3
Format/Info : Audio Coding 3
Format settings, Endianness : Big
Codec ID : A_EAC3
Duration : 1h 25mn
Bit rate mode : Constant
Bit rate : 224 Kbps
Channel(s) : 2 channels
Channel positions : Front: L R
Sampling rate : 48.0 KHz
Frame rate : 187.500 fps (256 spf)
Compression mode : Lossy
Stream size : 138 MiB (2%)
Title : WEB-DL
Language : English
Default : No
Forced : No
Text #1
ID : 8
Format : UTF-8
Codec ID : S_TEXT/UTF8
Codec ID/Info : UTF-8 Plain Text
Duration : 1h 20mn
Bit rate : 42 bps
Count of elements : 579
Stream size : 24.8 KiB (0%)
Language : Russian
Default : No
Forced : No
Text #2
ID : 9
Format : UTF-8
Codec ID : S_TEXT/UTF8
Codec ID/Info : UTF-8 Plain Text
Duration : 1h 24mn
Bit rate : 36 bps
Count of elements : 848
Stream size : 22.4 KiB (0%)
Language : English
Default : No
Forced : No

Скриншоты

[Profile]  [PM] 
Display posts:    
Reply to topic

Current time is: 01-Dec 03:45

All times are UTC + 2



You cannot post new topics in this forum
You cannot reply to topics in this forum
You cannot edit your posts in this forum
You cannot delete your posts in this forum
You cannot vote in polls in this forum
You cannot attach files in this forum
You cannot download files in this forum