Новая эра Z / The Girl with All the Gifts (Колм МакКарти / Colm McCarthy) [2016, США, Великобритания, ужасы, триллер, драма, BDRip 720p] Dub + AVO (В.Дохалов) + Sub Eng + Original Eng

Reply to topic
 
Author
Message

Faust ®

Gender: Unknown

Longevity: 9 years 2 months

Posts: 14058

Reputation: 0 [+] [-]

Faust · Post 21-Feb-2017 17:50

[Quote] 

Новая эра Z / The Girl with All the Gifts
Страна: США, Великобритания
Студия: Altitude Film Entertainment, Altitude Film Sales, BFI Film Fund, Poison Chef
Жанр: ужасы, триллер, драма
Год выпуска: 2016
Продолжительность: 01:50:55
Перевод: Профессиональный (дублированный)
Перевод 2: Авторский (одноголосый закадровый) Вартан Дохалов
Cубтитры: английские
Оригинальная аудиодорожка: английский
Режиссер: Колм МакКарти / Colm McCarthy
В ролях: Джемма Артертон, Гленн Клоуз, Пэдди Консидайн, Анамария Маринка, Доминик Типпер, Сенниа Нануа, Лобна Фьютерс, Дэниэл Иган, Фисайо Акинаде, Энтони Уэльс
Описание: Война миров не закончилась. Планету поразил страшный вирус. На людей стали нападать инфицированные особи, поставив человечество на грань исчезновения. Единственная надежда — второе поколение зараженных, опасных, но обладающих феноменальным, более высоким, чем у людей, интеллектом. Они — ключ к созданию спасительной вакцины. Поэтому их держат в специальном бункере, оберегая от контактов с внешним миром. Но однажды ситуация выходит из-под контроля.

Тип релиза: BDRip 720p
Контейнер: MKV
Видео: MPEG-4 AVC, 5710 Кбит/с, 1280x640, 23,976 fps
Аудио: Rus, AC3, 640 kb/s (6 ch), 48 kHz
Аудио2 : Rus, AC3, 640 kb/s (6 ch), 48 kHz
Аудио 3: Eng, AC3, 640 kb/s (6 ch), 48 kHz
Формат субтитров: softsub (SRT)

MediaInfo

x264 [info]: frame I:1147 Avg QP:13.89 size:115813
x264 [info]: frame P:30755 Avg QP:15.42 size: 58895
x264 [info]: frame B:127670 Avg QP:16.72 size: 22976
Format : Matroska
Format version : Version 4 / Version 2
File size : 6.03 GiB
Duration : 1h 50mn
Overall bit rate : 7 785 Kbps
Movie name : Новая эра Z. (Tonik)
Encoded date : UTC 2017-02-18 06:52:52
Writing application : mkvmerge v7.1.0 ('Good Love') 64bit built on Jul 27 2014 13:06:55
Writing library : libebml v1.3.0 + libmatroska v1.4.1
_STATISTICS_WRITING_APP : mkvmerge v7.1.0 ('Good Love') 64bit built on Jul 27 2014 13:06:55
_STATISTICS_WRITING_DATE_UTC : 2017-02-18 06:52:52
_STATISTICS_TAGS : BPS DURATION NUMBER_OF_FRAMES NUMBER_OF_BYTES
DURATION : 01:50:54.304000000
NUMBER_OF_FRAMES : 207947
NUMBER_OF_BYTES : 532344320
Video
ID : 1
Format : AVC
Format/Info : Advanced Video Codec
Format profile : High@L4.1
Format settings, CABAC : Yes
Format settings, ReFrames : 10 frames
Codec ID : V_MPEG4/ISO/AVC
Duration : 1h 50mn
Bit rate : 5 710 Kbps
Width : 1 280 pixels
Height : 640 pixels
Display aspect ratio : 2.000
Frame rate mode : Constant
Frame rate : 23.976 fps
Color space : YUV
Chroma subsampling : 4:2:0
Bit depth : 8 bits
Scan type : Progressive
Bits/(Pixel*Frame) : 0.291
Stream size : 4.42 GiB (73%)
Writing library : x264 core 148 r2744 b97ae06
Encoding settings : cabac=1 / ref=10 / deblock=1:-3:-3 / analyse=0x3:0x133 / me=umh / subme=10 / psy=1 / psy_rd=1.05:0.00 / mixed_ref=1 / me_range=64 / chroma_me=1 / trellis=2 / 8x8dct=1 / cqm=0 / deadzone=21,11 / fast_pskip=0 / chroma_qp_offset=-2 / threads=6 / lookahead_threads=1 / sliced_threads=0 / nr=0 / decimate=0 / interlaced=0 / bluray_compat=0 / constrained_intra=0 / bframes=9 / b_pyramid=2 / b_adapt=2 / b_bias=0 / direct=3 / weightb=1 / open_gop=0 / weightp=2 / keyint=250 / keyint_min=23 / scenecut=40 / intra_refresh=0 / rc_lookahead=60 / rc=crf / mbtree=0 / crf=16.9 / qcomp=0.65 / qpmin=0 / qpmax=69 / qpstep=4 / vbv_maxrate=62500 / vbv_bufsize=78125 / crf_max=0.0 / nal_hrd=none / filler=0 / ip_ratio=1.28 / pb_ratio=1.19 / aq=3:0.72 / zones=667,876,crf=14/143380,148580,crf=16.4/154814,159571,crf=21
Language : English
Default : Yes
Forced : No
_STATISTICS_WRITING_APP : mkvmerge v7.1.0 ('Good Love') 64bit built on Jul 27 2014 13:06:55
_STATISTICS_WRITING_DATE_UTC : 2017-02-18 06:52:52
_STATISTICS_TAGS : BPS DURATION NUMBER_OF_FRAMES NUMBER_OF_BYTES
DURATION : 01:50:55.482000000
NUMBER_OF_FRAMES : 159572
NUMBER_OF_BYTES : 4877472156
Audio #1
ID : 2
Format : AC-3
Format/Info : Audio Coding 3
Mode extension : CM (complete main)
Format settings, Endianness : Big
Codec ID : A_AC3
Duration : 1h 50mn
Bit rate mode : Constant
Bit rate : 640 Kbps
Channel(s) : 6 channels
Channel positions : Front: L C R, Side: L R, LFE
Sampling rate : 48.0 KHz
Bit depth : 16 bits
Compression mode : Lossy
Stream size : 508 MiB (8%)
Language : Russian
Default : Yes
Forced : No
Audio #2
ID : 3
Format : AC-3
Format/Info : Audio Coding 3
Mode extension : CM (complete main)
Format settings, Endianness : Big
Codec ID : A_AC3
Duration : 1h 50mn
Bit rate mode : Constant
Bit rate : 640 Kbps
Channel(s) : 6 channels
Channel positions : Front: L C R, Side: L R, LFE
Sampling rate : 48.0 KHz
Bit depth : 16 bits
Compression mode : Lossy
Stream size : 508 MiB (8%)
Title : В. Дохалов
Language : Russian
Default : No
Forced : No
Audio #3
ID : 4
Format : AC-3
Format/Info : Audio Coding 3
Mode extension : CM (complete main)
Format settings, Endianness : Big
Codec ID : A_AC3
Duration : 1h 50mn
Bit rate mode : Constant
Bit rate : 640 Kbps
Channel(s) : 6 channels
Channel positions : Front: L C R, Side: L R, LFE
Sampling rate : 48.0 KHz
Bit depth : 16 bits
Compression mode : Lossy
Stream size : 508 MiB (8%)
Language : English
Default : No
Forced : No
Text #1
ID : 5
Format : UTF-8
Codec ID : S_TEXT/UTF8
Codec ID/Info : UTF-8 Plain Text
Language : English
Default : No
Forced : No
Text #2
ID : 6
Format : UTF-8
Codec ID : S_TEXT/UTF8
Codec ID/Info : UTF-8 Plain Text
Title : SDH
Language : English
Default : No
Forced : No
Menu
00:00:00.000 : en:00:00:00.000
00:09:22.312 : en:00:09:22.312
00:17:59.537 : en:00:17:59.537
00:31:09.826 : en:00:31:09.826
00:41:11.636 : en:00:41:11.636
00:48:34.453 : en:00:48:34.453
00:58:38.807 : en:00:58:38.807
01:07:45.561 : en:01:07:45.561
01:18:03.137 : en:01:18:03.137
01:25:42.679 : en:01:25:42.679
01:36:59.772 : en:01:36:59.772
01:45:52.930 : en:01:45:52.930

Скриншоты

Замена русской дорожки.
[Profile]  [PM] 
Display posts:    
Reply to topic

Current time is: 01-Dec 03:43

All times are UTC + 2



You cannot post new topics in this forum
You cannot reply to topics in this forum
You cannot edit your posts in this forum
You cannot delete your posts in this forum
You cannot vote in polls in this forum
You cannot attach files in this forum
You cannot download files in this forum