Операция "Чудовище" / Операция "Огро" / Operacion Ogro (Джилло Понтекорво / Gillo Pontecorvo) [1979, Италия, Испания, Франция, драма, исторический, BDRip 1080p] VO (shachter58) + Sub Rus, Eng, Ita + Original Spa + Original Ita

Reply to topic
 
Author
Message

Faust ®

Gender: Unknown

Longevity: 9 years 2 months

Posts: 14058

Reputation: 0 [+] [-]

Faust · Post 21-Feb-2017 17:50

[Quote] 

Операция "Чудовище" / Операция "Огро" / Operacion Ogro
Страна: Италия, Испания, Франция
Студия: Action Film, Sabre Films, Vides Cinematografica
Жанр: драма, исторический
Год выпуска: 1979
Продолжительность: 01:45:29
Перевод: Одноголосый закадровый - shachter58
Перевод 2: Субтитры любительские - Евгений и Елена Феденко
Cубтитры: русские, английские, итальянские
Оригинальная аудиодорожка: испанский
Оригинальная аудиодорожка 2: итальянский
Режиссер: Джилло Понтекорво / Gillo Pontecorvo
В ролях: Джан Мария Волонте, Анхела Молина, Саверио Маркони, Хосе Сакристан, Эусебио Понсела, Фёдор Аткин, Жорж Стаке, Николь Гарсия, Луис Карреро Бланко, Хосе Мануэль Сервино, Фернандо Чинарро, Эстанис Гонсалес, Рауль Лобо, Аугусто Наварро, Луис Политти, Хосе Луис Перес Рейна, Агапито Ромо, Ана Торрент
Описание: В фильме показывается подготовка и реализация убийства Луиса Карреро Бланко – преемника диктатора Франциско Франко, являвшегося главой фашистского режима в Испании. Фильм основан на реальных событиях, описанных в одноименной книге Хулен Агирре (Евы Форест) – испанской писательницы и публициста, боровшейся за права человека и выступавшей против применения пыток. Название «Operacion Ogro» (операция «Чудовище») было дано плану похищения Карреро Бланко. Но вследствие ряда причин похищение было заменено убийством, которое и состоялось 20 декабря 1973 года. Организаторами и исполнителями этой операции были члены баскской подпольной левонационалистической организации Э.Т.А., боровшейся против фашизма за свободу своей страны и улучшение жизни населения....
Доп. информация: В найденный в сети рип, содержащий испанский оригинал и английские субтитры и сделанный с этого исходника - http://torrentsland.com.ua/forum/viewtopic.php?t=5356535, добавлены синхронизированная Нордером русская аудиодорога с феникслаба, синхронизированная Нордером итальянской аудиодороги из ДВД - http://torrentsland.com.ua/forum/viewtopic.php?t=4941452, а также синхронизированные sovsem-neduhoven русские и итальянские субтитры из той же ДВД-раздачи.
Сэмпл: https://yadi.sk/i/V6JipZ2X3EBFyS
Тип релиза: BDRip 1080p
Контейнер: MKV
Видео: 15900 Кбит/сек, NTSC 1436*1080 (4:3), 24,000 кадра/сек, AVC
Аудио: Русский, 192 Кбит/сек, 48,0 КГц, 2 канала, AC-3
Аудио 2: Испанский, 640 Кбит/сек, 48,0 КГц, 6 каналов, AC-3
Аудио 3: Итальянский, 448 Кбит/сек, 48,0 КГц, 6 каналов, AC-3
Формат субтитров: UTF

MediaInfo

ОбщееУникальный идентификатор                 : 215602686091910916290139582237302203652 (0xA2339121E591031DB0E2E4D6A1222504)Полное имя                               : O:\MONAR\Художественные фильмы\Зарубежное кино\Операция ''Чудовище'' (1979).mkvФормат                                   : MatroskaВерсия формата                           : Version 4 / Version 2Размер файла                             : 12,6 ГбайтПродолжительность                        : 1 ч. 45 м.Общий поток                              : 17,2 Мбит/секНазвание фильма                          : Gillo Pontecorvo - Ogro (1979)Дата кодирования                         : UTC 2017-02-16 20:34:19Программа кодирования                    : mkvmerge v9.6.0 ('Slave To Your Mind') 64bitБиблиотека кодирования                   : libebml v1.3.4 + libmatroska v1.4.5
ВидеоИдентификатор : 1Формат : AVCФормат/Информация : Advanced Video CodecПрофиль формата : High@L4.1Параметр CABAC формата : ДаПараметр ReFrames формата : 5 кадровИдентификатор кодека : V_MPEG4/ISO/AVCПродолжительность : 1 ч. 45 м.Битрейт : 15,9 Мбит/секШирина : 1436 пикселейВысота : 1080 пикселейСоотношение сторон : 4:3Режим частоты кадров : ПостоянныйЧастота кадров : 24,000 кадра/секЦветовое пространство : YUVСубдискретизация насыщенности : 4:2:0Битовая глубина : 8 битТип развёртки : ПрогрессивнаяБит/(Пиксели*Кадры) : 0.427Размер потока : 11,7 Гбайт (93%)Библиотека кодирования : x264 core 148 r2744+55 950084e t_mod_Custom [8-bit@all X86_64]Настройки программы : cabac=1 / ref=5 / deblock=1:-3:-3 / analyse=0x3:0x113 / me=umh / subme=10 / psy=1 / fade_compensate=0.00 / psy_rd=1.06:0.00 / mixed_ref=1 / me_range=32 / chroma_me=1 / trellis=2 / 8x8dct=1 / cqm=0 / deadzone=21,11 / fast_pskip=0 / chroma_qp_offset=-2 / threads=24 / lookahead_threads=4 / sliced_threads=0 / nr=0 / decimate=0 / interlaced=0 / bluray_compat=0 / constrained_intra=0 / fgo=0 / bframes=9 / b_pyramid=2 / b_adapt=2 / b_bias=0 / direct=3 / weightb=1 / open_gop=0 / weightp=2 / keyint=240 / keyint_min=23 / scenecut=40 / intra_refresh=0 / rc_lookahead=60 / rc=crf / mbtree=0 / crf=19.2000 / qcomp=0.75 / qpmin=0:0:0 / qpmax=69:69:69 / qpstep=4 / vbv_maxrate=62500 / vbv_bufsize=78125 / crf_max=0.0 / nal_hrd=none / filler=0 / ip_ratio=1.30 / pb_ratio=1.20 / aq=3:0.75 / aq-sensitivity=10.00 / aq-factor=1.00:1.00:1.00 / aq2=1:0.60 / aq2-sensitivity=15.00 / aq2-factor=1.00:1.00:1.00 / aq3=1:[0.60:0.60]:[0.60:0.60]:[0.60:0.60]:[0.60:0.60] / aq3-sensitivity=10.00 / aq3-factor=[1.00:1.00]:[1.00:1.00]:[1.00:1.00] / aq3-boundary=192:64:24Язык : ItalianDefault : ДаForced : НетЦветовой диапазон : LimitedОсновные цвета : BT.709Характеристики трансфера : BT.709Коэффициенты матрицы : BT.709
Аудио #1Идентификатор : 2Формат : AC-3Формат/Информация : Audio Coding 3Расширение режима : CM (complete main)Параметр Endianness формата : BigИдентификатор кодека : A_AC3Продолжительность : 1 ч. 45 м.Вид битрейта : ПостоянныйБитрейт : 192 Кбит/секКаналы : 2 каналаРасположение каналов : Front: L RЧастота : 48,0 КГцЧастота кадров : 31,250 кадров/сек (1536 spf)Битовая глубина : 16 битМетод сжатия : С потерямиРазмер потока : 145 Мбайт (1%)Заголовок : VOЯзык : RussianDefault : ДаForced : Нет
Аудио #2Идентификатор : 3Формат : AC-3Формат/Информация : Audio Coding 3Расширение режима : CM (complete main)Параметр Endianness формата : BigИдентификатор кодека : A_AC3Продолжительность : 1 ч. 45 м.Вид битрейта : ПостоянныйБитрейт : 640 Кбит/секКаналы : 6 каналовРасположение каналов : Front: L C R, Side: L R, LFEЧастота : 48,0 КГцЧастота кадров : 31,250 кадров/сек (1536 spf)Битовая глубина : 16 битМетод сжатия : С потерямиРазмер потока : 483 Мбайт (4%)Заголовок : originalЯзык : SpanishDefault : НетForced : Нет
Аудио #3Идентификатор : 4Формат : AC-3Формат/Информация : Audio Coding 3Расширение режима : CM (complete main)Параметр Endianness формата : BigИдентификатор кодека : A_AC3Продолжительность : 1 ч. 45 м.Вид битрейта : ПостоянныйБитрейт : 448 Кбит/секКаналы : 6 каналовРасположение каналов : Front: L C R, Side: L R, LFEЧастота : 48,0 КГцЧастота кадров : 31,250 кадров/сек (1536 spf)Битовая глубина : 16 битМетод сжатия : С потерямиРазмер потока : 338 Мбайт (3%)Заголовок : originalЯзык : ItalianDefault : НетForced : Нет
Текст #1Идентификатор : 5Формат : UTF-8Идентификатор кодека : S_TEXT/UTF8Идентификатор кодека/Информация : UTF-8 Plain TextПродолжительность : 1 ч. 42 м.Битрейт : 63 бит/секCount of elements : 675Размер потока : 47,8 Кбайт (0%)Заголовок : srtЯзык : RussianDefault : НетForced : Нет
Текст #2Идентификатор : 6Формат : UTF-8Идентификатор кодека : S_TEXT/UTF8Идентификатор кодека/Информация : UTF-8 Plain TextПродолжительность : 1 ч. 42 м.Битрейт : 35 бит/секCount of elements : 676Размер потока : 26,4 Кбайт (0%)Заголовок : srtЯзык : EnglishDefault : НетForced : Нет
Текст #3Идентификатор : 7Формат : UTF-8Идентификатор кодека : S_TEXT/UTF8Идентификатор кодека/Информация : UTF-8 Plain TextПродолжительность : 1 ч. 42 м.Битрейт : 36 бит/секCount of elements : 676Размер потока : 27,6 Кбайт (0%)Заголовок : srtЯзык : ItalianDefault : НетForced : Нет
Меню00:00:00.000 : en:00:00:00.00000:08:50.250 : en:00:08:50.25000:16:43.500 : en:00:16:43.50000:24:14.500 : en:00:24:14.50000:33:30.625 : en:00:33:30.62500:41:20.375 : en:00:41:20.37500:51:59.000 : en:00:51:59.00000:59:33.250 : en:00:59:33.25001:09:38.125 : en:01:09:38.12501:20:59.500 : en:01:20:59.50001:30:20.250 : en:01:30:20.25001:39:36.500 : en:01:39:36.50001:44:05.500 : en:01:44:05.500

Скриншоты

[Profile]  [PM] 
Display posts:    
Reply to topic

Current time is: 28-Nov 09:15

All times are UTC + 2



You cannot post new topics in this forum
You cannot reply to topics in this forum
You cannot edit your posts in this forum
You cannot delete your posts in this forum
You cannot vote in polls in this forum
You cannot attach files in this forum
You cannot download files in this forum