Иллюзия любви / From the Land of the Moon / Mal de pierres (Николь Гарсия / Nicole Garcia) [2016, Франция, Бельгия, Канада, драма, мелодрама, BDRip] MVO (iTunes Russia) + Original + Sub rus

Reply to topic
 
Author
Message

Satyr ®

Gender: Unknown

Longevity: 12 years

Posts: 18194

Reputation: 56 [+] [-]

Satyr · Post 21-Feb-2017 21:55

[Quote] 

Иллюзия любви / From the Land of the Moon / Mal de pierres«История страсти свободной духом женщины» Страна: Франция, Бельгия, Канада
Жанр: драма, мелодрама
Год выпуска: 2016
Продолжительность: 02:00:33
Перевод: Профессиональный (многоголосый закадровый) - (iTunes Russia)
Cубтитры: Русские (полные)
Оригинальная аудиодорожка: Французский
Режиссер: Николь Гарсия / Nicole Garcia
В ролях: Марион Котийяр, Луи Гаррель, Алекс Брендемюль, Брижит Роюан, Виктуар Ду Бойс, Алоиз Саваж, Дэниэл Пара, Чжихван Ким, Виктор Куиличини, Эндж Блэк-Берейциат
Описание: Южная провинция Франции переживает тяжелые послевоенные годы. В это время Габриэлла ищет покоя в мечтах о настоящей любви, но окружающие считают одержимость такой идеей неприличной и даже безумной. Чтобы оградить молодую девушку от страсти и порока, родители выдают её замуж. Супруг Габриэллы оказывается добропорядочным и любящим человеком, а жизнь с ним – тюремным заключением.
В санатории, куда Габриэллу отправляют на лечение, она безнадежно влюбляется в раненного ветерана Вьетнамской войны Андрэ. Вместе они планируют сбежать от обыденности в иллюзорный мир любви.
Кто посмеет лишить мечты страстную, свободную духом женщину?
Альтернативное описание: Экранизация романа Милены Агус «Каменная болезнь» вызвала 7-минутную овацию зрителей после показа на Каннском кинофестивале. Сюжетная линия картины начинается в середине прошлого столетия и длится около двадцати лет. Режиссер Николь Гарсиа знакомит нас с историей молодой замужней француженки Габриэль (Марион Котийяр), выросшей в рамках консервативного послевоенного воспитания и рискнувшей влюбиться в ветерана Индокитайской войны, тем самым бросив вызов мнению порицающего ее общества. Стремясь реализовать всю разбуженную чувствами бушующую страсть, Габриэль не собирается останавливаться ни перед чем и готова следовать за своим любимым куда угодно. Но даст ли судьба шанс стать счастливой с учетом всех непростых обстоятельств?
Сэмпл: http://multi-up.com/1141822
Качество видео: BDRip
Исходник: MAL_DE_PIERRES_REMUX_HDCLUB
Формат видео: AVI
Видео: 720x304 (2.37:1), 24.000 fps, XviD build 65 ~1715 kbps avg, 0.33 bit/pixel
Аудио RUS: 48 kHz, AC3 Dolby Digital, 3/2 (L,C,R,l,r) + LFE ch, ~384 kbps - (iTunes Russia)
Аудио ENG: 48 kHz, AC3 Dolby Digital, 3/2 (L,C,R,l,r) + LFE ch, ~448 kbps
Формат субтитров: softsub (SRT)

Rip by Ториял для
Экранизация одноименного романа Милены Агус.

MediaInfo

Формат : AVI
Формат/Информация : Audio Video Interleave
Профиль формата : OpenDML
Размер файла : 2,16 Гбайт
Продолжительность : 2 ч. 0 м.
Общий поток : 2564 Кбит/сек
Программа кодирования : VirtualDubMod 1.5.10.2 (build 2540/release)
Библиотека кодирования : VirtualDubMod build 2540/release
Видео
Идентификатор : 0
Формат : MPEG-4 Visual
Профиль формата : Advanced Simple@L5
Параметр BVOP формата : 1
Параметр QPel формата : Нет
Параметр GMC формата : Без точки перехода
Параметр матрицы формата : Выборочная
Идентификатор кодека : XVID
Идентификатор кодека/Подсказка : XviD
Продолжительность : 2 ч. 0 м.
Битрейт : 1715 Кбит/сек
Ширина : 720 пикселей
Высота : 304 пикселя
Соотношение сторон : 2,35:1
Частота кадров : 24,000 кадра/сек
Цветовое пространство : YUV
Субдискретизация насыщенности : 4:2:0
Битовая глубина : 8 бит
Тип развёртки : Прогрессивная
Метод сжатия : С потерями
Бит/(Пиксели*Кадры) : 0.326
Размер потока : 1,45 Гбайт (67%)
Библиотека кодирования : XviD 65
Аудио #1
Идентификатор : 1
Формат : AC-3
Формат/Информация : Audio Coding 3
Расширение режима : CM (complete main)
Параметр Endianness формата : Big
Идентификатор кодека : 2000
Продолжительность : 2 ч. 0 м.
Вид битрейта : Постоянный
Битрейт : 384 Кбит/сек
Каналы : 6 каналов
Расположение каналов : Front: L C R, Side: L R, LFE
Частота : 48,0 КГц
Частота кадров : 31,250 кадров/сек (1536 spf)
Битовая глубина : 16 бит
Метод сжатия : С потерями
Размер потока : 331 Мбайт (15%)
Выравнивание : Разделение по промежуткам
Продолжительность промежутка : 42 мс. (1,00 видеокадр)
Время предзагрузки промежутка : 500 мс.
Аудио #2
Идентификатор : 2
Формат : AC-3
Формат/Информация : Audio Coding 3
Расширение режима : CM (complete main)
Параметр Endianness формата : Big
Идентификатор кодека : 2000
Продолжительность : 2 ч. 0 м.
Вид битрейта : Постоянный
Битрейт : 448 Кбит/сек
Каналы : 6 каналов
Расположение каналов : Front: L C R, Side: L R, LFE
Частота : 48,0 КГц
Частота кадров : 31,250 кадров/сек (1536 spf)
Битовая глубина : 16 бит
Метод сжатия : С потерями
Размер потока : 386 Мбайт (17%)
Выравнивание : Разделение по промежуткам
Продолжительность промежутка : 42 мс. (1,00 видеокадр)
Время предзагрузки промежутка : 500 мс.

Скриншоты

[Profile]  [PM] 
Display posts:    
Reply to topic

Current time is: 25-Sep 20:01

All times are UTC + 2



You cannot post new topics in this forum
You cannot reply to topics in this forum
You cannot edit your posts in this forum
You cannot delete your posts in this forum
You cannot vote in polls in this forum
You cannot attach files in this forum
You cannot download files in this forum