Алмазный пес / Драгоценный пес / Dog Gone (Марк Стаффер / Mark Stouffer) [2008, США, Приключения, комедия, семейный, DVD5 (Custom)] DVO + Sub Spa + Original Eng

Reply to topic
 
Author
Message

Faust ®

Gender: Unknown

Longevity: 9 years 2 months

Posts: 14058

Reputation: 0 [+] [-]

Faust · Post 21-Feb-2017 21:55

[Quote] 

Алмазный пес / Драгоценный пес / Dog Gone

«Этот старый пес изучил некоторые новые трюки!»

Страна: США
Студия: Diamond Dog ,North by Northwest Entertainment
Жанр: Приключения, комедия, семейный
Год выпуска: 2008
Продолжительность: 01:47:37
Перевод: Профессиональный (двухголосый закадровый)
Cубтитры: испанские
Оригинальная аудиодорожка: английский
Режиссер: Марк Стаффер / Mark Stouffer
В ролях: Люк Бенвард, Френч Стюарт, Kelly Perine, Кевин П. Фарли, Бриттани Каррен, Denyse Tontz, Джон Фарли, Кенда Бенвард, Камерон Монахэн, Alba Jeanne MacConnel
Описание: Печально известный вор с парой своих сообщников ограбили ювелирную лавку. Но все награбленное украл пес и скрылся в неизвестном направлении. теперь храбрый мальчик Оуэн нашедший пса с кучей алмазов, пытается защитить его от троицы неуклюжих воришек…
Доп. информация:СБОРКА НОРДЕРАРелиз:


Рекомендуется присутствие родителей :
Меню: есть , озвученное , анимированное
Тип релиза: DVD5 (Custom)
Контейнер: DVD-Video
Видео: NTSC 16:9 (720x480) VBR
Аудио: AC3, 3/2 (L,C,R,SL,SR)+LFE ch, 448 kbps, Delay 0 mSec (rus)
Аудио 2: AC3, 3/2 (L,C,R,SL,SR)+LFE ch, 448 kbps, Delay 0 mSec (eng)

DVDInfo

Title: F:\МОИ ВИДЕО ЗАПИСИ DViX, AVi, MPG4\DVD ПЕРЕВЕДЕННЫЕ НА РУССКИЙ\Алмазный пес Драгоценный пес Dog Gone (Марк Стаффер Mark Stouffer) [2008, США, комедия, семейный, DVD - 5\Dog Gone DVD
Size: 4.30 Gb ( 4 513 954,00 KBytes ) - DVD-5
Enabled regions: 1, 2, 3, 4, 5, 6, 7, 8
VTS_01 :
Play Length: 01:47:37
Video: NTSC 16:9 (720x480) VBR, Auto Letterboxed
Audio:
Russian (Dolby AC3, 6 ch)
English (Dolby AC3, 6 ch)
Subtitles:
Espanol
VTS_02 :
Play Length: 00:00:12
Video: NTSC 4:3 (720x480) VBR
VTS_03 :
Play Length: 00:00:09
Video: NTSC 4:3 (720x480) VBR
Audio:
English (Dolby AC3, 2 ch)
VTS_04 :
Play Length: 00:00:01+00:01:31
Video: NTSC 16:9 (720x480) VBR, Auto Letterboxed
Audio:
English (Dolby AC3, 2 ch)
VTS_05 :
Play Length: 00:00:01+00:00:13
Video: NTSC 4:3 (720x480) VBR
Audio:
English (Dolby AC3, 2 ch)

MEDIA INFO

Общее
Полное имя : F:\МОИ ВИДЕО ЗАПИСИ DViX, AVi, MPG4\DVD ПЕРЕВЕДЕННЫЕ НА РУССКИЙ\Алмазный пес Драгоценный пес Dog Gone (Марк Стаффер Mark Stouffer) [2008, США, комедия, семейный, DVD - 5\Dog Gone DVD\VIDEO_TS\VTS_01_1.VOB
Формат : MPEG-PS
Размер файла : 1024 Мбайт
Продолжительность : 23 м.
Режим общего битрейта : Переменный
Общий поток : 6060 Кбит/сек
Видео
Идентификатор : 224 (0xE0)
Формат : MPEG Video
Версия формата : Version 2
Профиль формата : Main@Main
Параметр BVOP формата : Да
Параметр матрицы формата : Выборочная
Параметр GOP формата : Variable
Структура изображения : Frame
Продолжительность : 23 м.
Вид битрейта : Переменный
Битрейт : 5043 Кбит/сек
Максимальный битрейт : 9802 Кбит/сек
Ширина : 720 пикселей
Высота : 480 пикселей
Соотношение сторон : 16:9
Частота кадров : 29,970 (30000/1001) кадров/сек
Стандарт вещания : NTSC
Цветовое пространство : YUV
Субдискретизация насыщенности : 4:2:0
Битовая глубина : 8 бит
Тип развёртки : Чересстрочная
Порядок развёртки : Верхнее поле первое
Метод сжатия : С потерями
Бит/(Пиксели*Кадры) : 0.487
Размер потока : 852 Мбайт (83%)
Аудио #1
Идентификатор : 189 (0xBD)-128 (0x80)
Формат : AC-3
Формат/Информация : Audio Coding 3
Расширение режима : CM (complete main)
Параметр Endianness формата : Big
Режим смешивания : DVD-Video
Продолжительность : 23 м.
Вид битрейта : Постоянный
Битрейт : 448 Кбит/сек
Каналы : 6 каналов
Расположение каналов : Front: L C R, Side: L R, LFE
Частота : 48,0 КГц
Частота кадров : 31,250 кадров/сек (1536 spf)
Метод сжатия : С потерями
Размер потока : 75,7 Мбайт (7%)
Аудио #2
Идентификатор : 189 (0xBD)-129 (0x81)
Формат : AC-3
Формат/Информация : Audio Coding 3
Расширение режима : CM (complete main)
Параметр Endianness формата : Big
Режим смешивания : DVD-Video
Продолжительность : 23 м.
Вид битрейта : Постоянный
Битрейт : 448 Кбит/сек
Каналы : 6 каналов
Расположение каналов : Front: L C R, Side: L R, LFE
Частота : 48,0 КГц
Частота кадров : 31,250 кадров/сек (1536 spf)
Метод сжатия : С потерями
Размер потока : 75,7 Мбайт (7%)
Текст #1
Идентификатор : 224 (0xE0)-CC3
Формат : EIA-608
Режим смешивания, доп. информация : Muxed in Video #1
Вид битрейта : Постоянный
Размер потока : 0,00 байт (0%)
Текст #2
Идентификатор : 189 (0xBD)-32 (0x20)
Формат : RLE
Формат/Информация : Run-length encoding
Режим смешивания : DVD-Video

Скриншоты меню

Скриншоты

[Profile]  [PM] 
Display posts:    
Reply to topic

Current time is: 01-Dec 03:35

All times are UTC + 2



You cannot post new topics in this forum
You cannot reply to topics in this forum
You cannot edit your posts in this forum
You cannot delete your posts in this forum
You cannot vote in polls in this forum
You cannot attach files in this forum
You cannot download files in this forum