Американская пастораль / American Pastoral (Юэн МакГрегор / Ewan McGregor) [2016, США, Гонконг, драма, криминал, HDRip-AVC] Dub

Reply to topic
 
Author
Message

Satyr ®

Gender: Unknown

Longevity: 11 years

Posts: 15401

Reputation: 55 [+] [-]

Satyr · Post 22-Feb-2017 10:10

[Quote] 

Американская пастораль / American Pastoral«A radically ordinary story»- Страна: США, Гонконг
Жанр: драма, криминал
Год выпуска: 2016
Продолжительность: 01:48:16
Перевод: Профессиональный (дублированный) (iTunes)
Оригинальная аудиодорожка: нет
Субтитры: нет
Навигация по главам: есть
Режиссер: Юэн МакГрегор / Ewan McGregor
В ролях: Юэн МакГрегор (Swede Levov), Дженнифер Коннелли (Dawn Levov), Дакота Фаннинг (Merry Levov), Питер Ригерт (Lou Levov), Руперт Эванс (Jerry Levov), Узо Адуба (Vicky), Молли Паркер (Sheila Smith), Вэлори Керри (Rita Cohen), Ханна Нордберг (Merry Levov (12 Years Old)), Джулия Силверман (Sylvia Levov), Марк Хилдрет (Agent Dolan), Саманта Мэтис (Penny Hamlin)
Описание: Прекрасный гражданин, семьянин, трудолюбивый предприниматель, унаследовавший от отца небольшую фабрику, главный герой Сеймур - столп американского общества и наслаждается вместе со страной послевоенным процветанием. Но приходят 60-е и мир, который строил Сеймур, начинает рушиться, а самый болезненный удар наносит дочь, выбравшая путь политического террора.- -Качество: HDRip-AVC (исходник - American.Pastoral.2016.BluRay.1080p.DTS-HDMA5.1.x264-MTeam)
Формат видео: MKV
Видео: x264, 1032x434 (2.40:1) 23,976 fps, ~1443 kbps, 0.134 bit/pixel
Аудио: 48 kHz, AC3 Dolby Digital, 5.1 (Front: L C R, Side: L R, LFE) ch, ~384 kbps-

MediaInfo | x264 log

Format : Matroska
Format version : Version 4 / Version 2
File size : 1.41 GiB
Duration : 1 h 48 min
Overall bit rate : 1 864 kb/s
Movie name : Американская пастораль / American Pastoral (2016) :: AFM ::
Encoded date : UTC 2017-02-20 06:05:12
Writing application : mkvmerge v8.3.0 ('Over the Horizon') 32bit
Writing library : libebml v1.3.1 + libmatroska v1.4.2
Video
ID : 1
Format : AVC
Format/Info : Advanced Video Codec
Format profile : High@L4.1
Format settings, CABAC : Yes
Format settings, ReFrames : 10 frames
Codec ID : V_MPEG4/ISO/AVC
Duration : 1 h 48 min
Bit rate : 1 443 kb/s
Width : 1 032 pixels
Height : 434 pixels
Display aspect ratio : 2.40:1
Frame rate mode : Constant
Frame rate : 23.976 (24000/1001) FPS
Color space : YUV
Chroma subsampling : 4:2:0
Bit depth : 8 bits
Scan type : Progressive
Bits/(Pixel*Frame) : 0.134
Stream size : 1.09 GiB (77%)
Title : HDRip by AFM
Writing library : x264 core 148 r2762+56 6284cf3 t_mod_Custom [8-bit@all X86_64]
Encoding settings : cabac=1 / ref=10 / deblock=1:-2:-2 / analyse=0x3:0x113 / me=umh / subme=10 / psy=1 / fade_compensate=0.00 / psy_rd=1.00:0.00 / mixed_ref=1 / me_range=32 / chroma_me=1 / trellis=2 / 8x8dct=1 / cqm=0 / deadzone=21,11 / fast_pskip=0 / chroma_qp_offset=-2 / threads=6 / lookahead_threads=1 / sliced_threads=0 / nr=0 / decimate=1 / interlaced=0 / bluray_compat=0 / constrained_intra=0 / fgo=0 / bframes=12 / b_pyramid=2 / b_adapt=2 / b_bias=0 / direct=1 / weightb=1 / open_gop=0 / weightp=2 / keyint=240 / keyint_min=23 / scenecut=40 / intra_refresh=0 / rc_lookahead=60 / rc=crf / mbtree=0 / crf=18.4000 / qcomp=0.65 / qpmin=0:0:0 / qpmax=69:69:69 / qpstep=4 / vbv_maxrate=50000 / vbv_bufsize=62500 / crf_max=0.0 / nal_hrd=none / filler=0 / ip_ratio=1.30 / pb_ratio=1.25 / aq=3:0.90 / aq-sensitivity=10.00 / aq-factor=1.00:1.00:1.00 / aq2=0 / aq3=0
Language : English
Default : Yes
Forced : No
Audio
ID : 2
Format : AC-3
Format/Info : Audio Coding 3
Mode extension : CM (complete main)
Format settings, Endianness : Big
Codec ID : A_AC3
Duration : 1 h 48 min
Bit rate mode : Constant
Bit rate : 384 kb/s
Channel(s) : 6 channels
Channel positions : Front: L C R, Side: L R, LFE
Sampling rate : 48.0 kHz
Frame rate : 31.250 FPS (1536 spf)
Compression mode : Lossy
Stream size : 297 MiB (21%)
Title : Dub, AC3 5.1 ~384 kbps
Language : Russian
Default : Yes
Forced : No
Menu
00:00:00.000 : :Chapter 1
00:07:29.157 : :Chapter 2
00:11:13.923 : :Chapter 3
00:19:19.408 : :Chapter 4
00:25:58.932 : :Chapter 5
00:32:15.600 : :Chapter 6
00:38:52.163 : :Chapter 7
00:45:42.031 : :Chapter 8
00:52:51.251 : :Chapter 9
00:58:04.773 : :Chapter 10
01:05:01.106 : :Chapter 11
01:12:01.484 : :Chapter 12
01:17:35.234 : :Chapter 13
01:25:41.053 : :Chapter 14
01:32:39.012 : :Chapter 15
01:39:02.645 : :Chapter 16

x264

x264 [info]: frame I:1181 Avg QP:15.02 size: 57913
x264 [info]: frame P:28303 Avg QP:16.32 size: 18170
x264 [info]: frame B:126285 Avg QP:18.40 size: 4894
x264 [info]: consecutive B-frames: 1.2% 0.9% 3.1% 9.7% 10.3% 60.1% 5.6% 2.4% 1.4% 4.3% 0.2% 0.2% 0.4%
x264 [info]: mb I I16..4: 6.4% 74.7% 18.9%
x264 [info]: mb P I16..4: 0.5% 5.8% 1.4% P16..4: 35.4% 30.2% 17.7% 0.0% 0.0% skip: 9.0%
x264 [info]: mb B I16..4: 0.0% 0.5% 0.1% B16..8: 34.7% 11.9% 3.2% direct: 3.2% skip:46.3% L0:45.5% L1:45.2% BI: 9.3%
x264 [info]: 8x8 transform intra:74.7% inter:57.2%
x264 [info]: coded y,uvDC,uvAC intra: 84.2% 79.0% 60.3% inter: 16.3% 10.8% 1.4%
x264 [info]: i16 v,h,dc,p: 52% 12% 10% 26%
x264 [info]: i8 v,h,dc,ddl,ddr,vr,hd,vl,hu: 22% 9% 10% 8% 10% 11% 10% 10% 10%
x264 [info]: i4 v,h,dc,ddl,ddr,vr,hd,vl,hu: 35% 6% 4% 8% 10% 11% 9% 9% 8%
x264 [info]: i8c dc,h,v,p: 40% 23% 25% 12%
x264 [info]: Weighted P-Frames: Y:3.9% UV:1.4%
x264 [info]: ref P L0: 45.9% 8.5% 18.2% 7.0% 6.2% 4.2% 4.1% 2.1% 2.2% 1.8% 0.1% 0.0%
x264 [info]: ref B L0: 65.9% 13.5% 7.4% 4.1% 3.0% 2.6% 2.1% 1.0% 0.4%
x264 [info]: ref B L1: 92.1% 7.9%
x264 [info]: kb/s:1478.46

Скриншоты

с названием

[Profile]  [PM] 
Display posts:    
Reply to topic

Current time is: 28-Nov 18:55

All times are UTC + 2



You cannot post new topics in this forum
You cannot reply to topics in this forum
You cannot edit your posts in this forum
You cannot delete your posts in this forum
You cannot vote in polls in this forum
You cannot attach files in this forum
You cannot download files in this forum