Планетариум / Planetarium (Ребекка Злотовски / Rebecca Zlotowski) [2016, Франция, Бельгия, Фэнтези, триллер, драма, мелодрама, детектив, WEB-DLRip] Dub (iTunes)

Reply to topic
 
Author
Message

Satyr ®

Online

Gender: Unknown

Longevity: 11 years

Posts: 15401

Reputation: 55 [+] [-]

Satyr · Post 22-Feb-2017 14:10

[Quote] 

Планетариум / Planetarium
Страна: Франция, Бельгия
Жанр: Фэнтези, триллер, драма, мелодрама, детектив
Год выпуска: 2016
Продолжительность: 01:48:09
Перевод: Профессиональный (дублированный) - (iTunes)
Cубтитры: нет
Оригинальная аудиодорожка: нет
Режиссер: Ребекка Злотовски / Rebecca Zlotowski
В ролях: Натали Портман, Лили-Роуз Мелоди Депп, Эммануэль Салинжер, Амира Касар, Пьер Сальвадори, Луи Гаррель, Давид Беннент, Дэмиен Шапель, Ежи Рогульский, Камилль Лелуш
Описание: В начале 1930-х годов две сестры с паранормальными способностями, Кейт и Лора, приезжают из Америки в Париж. Во время своих выступлений перед публикой они вводят зрителей в транс и устанавливают контакт с потусторонним миром. На один такой сеанс приходит Андрэ, хозяин большой парижской киностудии, который настолько впечатляется выступлением сестер, что предлагает им выгодный контракт. И вот уже Лора играет в кино, а Кейт производит опыты для ученых, изучающих сверхъестественные явления. Попытка запечатлеть призраков на кинопленке приводит к странным событиям, которые никто не может объяснить.
Сэмпл: http://multi-up.com/1141807
Качество видео: WEB-DLRip
Исходник: Planetarium.2016.720p.WEB-DL.Rus.HDCLUB
Формат видео: AVI
Видео: 720x304 (2.37:1), 24.000 fps, XviD build 65 ~1540 kbps avg, 0.29 bit/pixel
Аудио RUS: 48 kHz, AC3 Dolby Digital, 3/2 (L,C,R,l,r) + LFE ch, ~384 kbps
Rip by Ториял для

Интересные факты

Натали Портман и Лили-Роуз Мелоди Депп играют сестер, при этом Натали 34 года, а Лили-Роуз 16.
Мировая премьера фильма состоялась на Венецианском кинофестивале.

Это первый фильм Натали Портман со времен «Леона» (1994) Люка Бессона, в котором она снялась у французского режиссера.


Для подготовки к роли Натали Портман усиленно изучала французский язык.

В основу персонажа продюсера лег французский продюсер еврейского происхождения Бернард Натан, одна из крупнейших фигур французской киноиндустрии 1920–30-ых годов, который погиб в Освенциме.

MediaInfo

ормат : AVI
Формат/Информация : Audio Video Interleave
Размер файла : 1,46 Гбайт
Продолжительность : 1 ч. 48 м.
Общий поток : 1934 Кбит/сек
Программа кодирования : VirtualDubMod 1.5.10.3 | www.virtualdub-fr.org || (build 2550/release)
Библиотека кодирования : VirtualDubMod build 2550/release
Видео
Идентификатор : 0
Формат : MPEG-4 Visual
Профиль формата : Advanced Simple@L5
Параметр BVOP формата : 1
Параметр QPel формата : Нет
Параметр GMC формата : Без точки перехода
Параметр матрицы формата : Выборочная
Идентификатор кодека : XVID
Идентификатор кодека/Подсказка : XviD
Продолжительность : 1 ч. 48 м.
Битрейт : 1541 Кбит/сек
Ширина : 720 пикселей
Высота : 304 пикселя
Соотношение сторон : 2,35:1
Частота кадров : 24,000 кадра/сек
Цветовое пространство : YUV
Субдискретизация насыщенности : 4:2:0
Битовая глубина : 8 бит
Тип развёртки : Прогрессивная
Метод сжатия : С потерями
Бит/(Пиксели*Кадры) : 0.293
Размер потока : 1,16 Гбайт (80%)
Библиотека кодирования : XviD 65
Аудио
Идентификатор : 1
Формат : AC-3
Формат/Информация : Audio Coding 3
Расширение режима : CM (complete main)
Параметр Endianness формата : Big
Идентификатор кодека : 2000
Продолжительность : 1 ч. 48 м.
Вид битрейта : Постоянный
Битрейт : 384 Кбит/сек
Каналы : 6 каналов
Расположение каналов : Front: L C R, Side: L R, LFE
Частота : 48,0 КГц
Частота кадров : 31,250 кадров/сек (1536 spf)
Битовая глубина : 16 бит
Метод сжатия : С потерями
Размер потока : 297 Мбайт (20%)
Выравнивание : Разделение по промежуткам
Продолжительность промежутка : 42 мс. (1,00 видеокадр)
Время предзагрузки промежутка : 500 мс.

Скриншоты

[Profile]  [PM] 
Display posts:    
Reply to topic

Current time is: 01-Dec 04:36

All times are UTC + 2



You cannot post new topics in this forum
You cannot reply to topics in this forum
You cannot edit your posts in this forum
You cannot delete your posts in this forum
You cannot vote in polls in this forum
You cannot attach files in this forum
You cannot download files in this forum