Союзники / Allied (Роберт Земекис / Robert Zemeckis) [2016, США, Великобритания, боевик, триллер, драма, BDRip-AVC] Dub + Original + Sub (rus, eng)

Reply to topic
 
Author
Message

Satyr ®

Online

Gender: Unknown

Longevity: 11 years

Posts: 15401

Reputation: 55 [+] [-]

Satyr · Post 22-Feb-2017 14:10

[Quote] 

Союзники / Allied«Nothing is as it seems»- Страна: США, Великобритания
Жанр: боевик, триллер, драма, мелодрама, военный
Год выпуска: 2016
Продолжительность: 02:04:35
Перевод: Профессиональный (дублированный) (iTunes)
Оригинальная аудиодорожка: английский
Субтитры: русские (форс., полные) английские (форс., полные, SDH)
Навигация по главам: есть
Режиссер: Роберт Земекис / Robert Zemeckis
В ролях: Брэд Питт (Max Vatan), Марион Котийяр (Marianne Beauséjour), Лиззи Каплан (Bridget Vatan), Аугуст Диль (Hobar), Шарлотта Хоуп (Louise), Рэффи Кэссиди (Anna), Мэттью Гуд (Guy Sangster), Дэниэл Беттс (George Kavanagh), Саймон МакБерни (S.O.E. Official), Джаред Харрис (Frank Heslop), Тьерри Фремон (Paul Delamare), Энтон Лессер (Emmanuel Lombard)
Описание: 1942 год. Во время опасной миссии в Северной Африке разведчик Макс встречает участницу сопротивления Марианну. Их чувствам суждено подвергнуться тысяче испытаний, главным из которых станет испытание правдой...- -Качество: BDRip-AVC (исходник - BDRemux|Allied.2016.1080p.BluRay.REMUX.AVC.DTS-HD.MA.5.1-FGT)
Формат видео: MKV
Видео: x264, 1152x480 (2.40:1) 23,976 fps, ~1574 kbps, 0.119 bit/pixel
Аудио 1: 48 kHz, AC3 Dolby Digital, 3/2 (L,C,R,l,r) + LFE ch, ~384 kbps [русский]
Аудио 2: 48 kHz, AC3 Dolby Digital, 3/2 (L,C,R,l,r) + LFE ch, ~448 kbps [английский]
Формат субтитров: softsub (SRT)-

MediaInfo | x264 log

Format : Matroska
Format version : Version 4 / Version 2
File size : 2.14 GiB
Duration : 2h 4 min
Overall bit rate : 2 455 kb/s
Movie name : Союзники / Allied (2016) :: AFM ::
Encoded date : UTC 2017-02-20 23:10:33
Writing application : mkvmerge v8.3.0 ('Over the Horizon') 32bit
Writing library : libebml v1.3.1 + libmatroska v1.4.2
Video
ID : 1
Format : AVC
Format/Info : Advanced Video Codec
Format profile : High@L4.1
Format settings, CABAC : Yes
Format settings, ReFrames : 11 frames
Codec ID : V_MPEG4/ISO/AVC
Duration : 2h 4 min
Bit rate : 1 574 kb/s
Width : 1 152 pixels
Height : 480 pixels
Display aspect ratio : 2.40:1
Frame rate mode : Constant
Frame rate : 23.976 (24000/1001) FPS
Color space : YUV
Chroma subsampling : 4:2:0
Bit depth : 8 bits
Scan type : Progressive
Bits/(Pixel*Frame) : 0.119
Stream size : 1.37 GiB (64%)
Title : BDRip by AFM
Writing library : x264 core 148 r2762+56 6284cf3 t_mod_Custom [8-bit@all X86_64]
Encoding settings : cabac=1 / ref=11 / deblock=1:-2:-2 / analyse=0x3:0x113 / me=umh / subme=10 / psy=1 / fade_compensate=0.00 / psy_rd=1.00:0.00 / mixed_ref=1 / me_range=32 / chroma_me=1 / trellis=2 / 8x8dct=1 / cqm=0 / deadzone=21,11 / fast_pskip=0 / chroma_qp_offset=-2 / threads=6 / lookahead_threads=1 / sliced_threads=0 / nr=0 / decimate=1 / interlaced=0 / bluray_compat=0 / constrained_intra=0 / fgo=0 / bframes=14 / b_pyramid=2 / b_adapt=2 / b_bias=0 / direct=1 / weightb=1 / open_gop=0 / weightp=2 / keyint=240 / keyint_min=23 / scenecut=40 / intra_refresh=0 / rc_lookahead=60 / rc=crf / mbtree=0 / crf=17.7000 / qcomp=0.65 / qpmin=0:0:0 / qpmax=69:69:69 / qpstep=4 / vbv_maxrate=50000 / vbv_bufsize=62500 / crf_max=0.0 / nal_hrd=none / filler=0 / ip_ratio=1.30 / pb_ratio=1.25 / aq=3:0.90 / aq-sensitivity=10.00 / aq-factor=1.00:1.00:1.00 / aq2=0 / aq3=0 / zones=167700,179228,q=30
Language : English
Default : Yes
Forced : No
Audio #1
ID : 2
Format : AC-3
Format/Info : Audio Coding 3
Mode extension : CM (complete main)
Format settings, Endianness : Big
Codec ID : A_AC3
Duration : 2h 4 min
Bit rate mode : Constant
Bit rate : 384 kb/s
Channel(s) : 6 channels
Channel positions : Front: L C R, Side: L R, LFE
Sampling rate : 48.0 kHz
Frame rate : 31.250 FPS (1536 spf)
Compression mode : Lossy
Stream size : 342 MiB (16%)
Title : Dub, AC3 5.1 ~384 kbps
Language : Russian
Default : Yes
Forced : No
Audio #2
ID : 3
Format : AC-3
Format/Info : Audio Coding 3
Mode extension : CM (complete main)
Format settings, Endianness : Big
Codec ID : A_AC3
Duration : 2h 4 min
Bit rate mode : Constant
Bit rate : 448 kb/s
Channel(s) : 6 channels
Channel positions : Front: L C R, Side: L R, LFE
Sampling rate : 48.0 kHz
Frame rate : 31.250 FPS (1536 spf)
Compression mode : Lossy
Stream size : 399 MiB (18%)
Title : Original, AC3 5.1 ~448 kbps
Language : English
Default : No
Forced : No
Text #1
ID : 4
Format : UTF-8
Codec ID : S_TEXT/UTF8
Codec ID/Info : UTF-8 Plain Text
Title : forced
Language : Russian
Default : Yes
Forced : No
Text #2
ID : 5
Format : UTF-8
Codec ID : S_TEXT/UTF8
Codec ID/Info : UTF-8 Plain Text
Language : Russian
Default : No
Forced : No
Text #3
ID : 6
Format : UTF-8
Codec ID : S_TEXT/UTF8
Codec ID/Info : UTF-8 Plain Text
Title : forced
Language : English
Default : No
Forced : No
Text #4
ID : 7
Format : UTF-8
Codec ID : S_TEXT/UTF8
Codec ID/Info : UTF-8 Plain Text
Language : English
Default : No
Forced : No
Text #5
ID : 8
Format : UTF-8
Codec ID : S_TEXT/UTF8
Codec ID/Info : UTF-8 Plain Text
Title : SDH
Language : English
Default : No
Forced : No
Menu
00:00:00.000 : en:Chapter 01
00:05:38.088 : en:Chapter 02
00:16:39.749 : en:Chapter 03
00:24:31.428 : en:Chapter 04
00:33:52.280 : en:Chapter 05
00:43:07.543 : en:Chapter 06
00:49:14.118 : en:Chapter 07
01:01:39.321 : en:Chapter 08
01:09:36.339 : en:Chapter 09
01:16:44.016 : en:Chapter 10
01:26:14.961 : en:Chapter 11
01:31:53.466 : en:Chapter 12
01:40:12.173 : en:Chapter 13
01:47:25.105 : en:Chapter 14
01:56:35.614 : en:Chapter 15

x264

x264 [info]: frame I:1107 Avg QP:15.25 size: 64366
x264 [info]: frame P:33660 Avg QP:16.45 size: 20387
x264 [info]: frame B:144461 Avg QP:18.33 size: 5242
x264 [info]: consecutive B-frames: 1.1% 1.2% 6.4% 13.5% 17.4% 35.5% 8.5% 4.2% 3.0% 1.4% 1.9% 3.3% 0.9% 1.3% 0.5%
x264 [info]: mb I I16..4: 4.5% 76.6% 18.8%
x264 [info]: mb P I16..4: 0.4% 6.0% 1.0% P16..4: 36.7% 31.0% 17.2% 0.0% 0.0% skip: 7.7%
x264 [info]: mb B I16..4: 0.0% 0.3% 0.1% B16..8: 36.5% 12.2% 2.9% direct: 3.3% skip:44.8% L0:44.0% L1:45.2% BI:10.8%
x264 [info]: 8x8 transform intra:79.3% inter:61.3%
x264 [info]: coded y,uvDC,uvAC intra: 90.0% 81.5% 60.0% inter: 15.5% 10.6% 2.4%
x264 [info]: i16 v,h,dc,p: 21% 10% 6% 62%
x264 [info]: i8 v,h,dc,ddl,ddr,vr,hd,vl,hu: 12% 9% 5% 9% 13% 13% 13% 12% 13%
x264 [info]: i4 v,h,dc,ddl,ddr,vr,hd,vl,hu: 10% 7% 2% 10% 17% 15% 14% 12% 13%
x264 [info]: i8c dc,h,v,p: 41% 24% 20% 15%
x264 [info]: Weighted P-Frames: Y:3.4% UV:1.5%
x264 [info]: ref P L0: 48.5% 9.1% 16.7% 6.4% 5.4% 3.7% 3.5% 1.8% 1.8% 1.4% 1.6% 0.1% 0.0%
x264 [info]: ref B L0: 70.4% 12.4% 6.4% 3.3% 2.3% 1.9% 1.5% 0.9% 0.6% 0.2%
x264 [info]: ref B L1: 92.8% 7.2%
x264 [info]: kb/s:1621.06

Скриншоты

с названием

[Profile]  [PM] 
Display posts:    
Reply to topic

Current time is: 01-Dec 04:35

All times are UTC + 2



You cannot post new topics in this forum
You cannot reply to topics in this forum
You cannot edit your posts in this forum
You cannot delete your posts in this forum
You cannot vote in polls in this forum
You cannot attach files in this forum
You cannot download files in this forum