Американская пастораль / American Pastoral (Юэн МакГрегор / Ewan McGregor) [2016, США, Гонконг, драма, криминал, BDRip] Dub + Original Eng + Sub Eng

Reply to topic
 
Author
Message

Satyr ®

Gender: Unknown

Longevity: 11 years

Posts: 15401

Reputation: 55 [+] [-]

Satyr · Post 22-Feb-2017 14:10

[Quote] 

-Американская пастораль / American Pastoral
«A radically ordinary story»- -Страна: США, Гонконг
Жанр: драма, криминал
Год выпуска: 2016
Продолжительность: 01:48:16-Перевод: Профессиональный (дублированный) iTunes
Cубтитры: английские
Оригинальная аудиодорожка: английская-Режиссер: Юэн МакГрегор / Ewan McGregor-В ролях: Юэн МакГрегор, Дженнифер Коннелли, Дакота Фаннинг, Питер Ригерт, Руперт Эванс, Узо Адуба, Молли Паркер, Вэлори Керри, Ханна Нордберг, Джулия Силверман-Описание: Прекрасный гражданин, семьянин, трудолюбивый предприниматель, унаследовавший от отца небольшую фабрику, главный герой Сеймур - столп американского общества и наслаждается вместе со страной послевоенным процветанием. Но приходят 60-е и мир, который строил Сеймур, начинает рушиться, а самый болезненный удар наносит дочь, выбравшая путь политического террора.- - -Качество видео: BDRip / American.Pastoral.2016.1080p.BluRay.REMUX.AVC.DTS-HD.MA.5.1-FGT
Формат видео: AVI-Видео: XviD build 67, 720x304 (2.35:1), 23.976 fps, ~2022 kbps avg, 0.385 bit/pixel
Аудио 1: 48 kHz, AC3 Dolby Digital, 3/2 (L,C,R,l,r) + LFE ch, ~384 kbps avg
Аудио 2: 48 kHz, AC3 Dolby Digital, 3/2 (L,C,R,l,r) + LFE ch, ~448 kbps avg-

MediaInfo

Complete name : C:\Users\ИВАН\Desktop\Американская пастораль (2016) BDRip\Американская пастораль (2016) BDRip_ivanes20031987.avi
Format : AVI
Format/Info : Audio Video Interleave
Format profile : OpenDML
File size : 2.17 GiB
Duration : 1 h 48 min
Overall bit rate : 2 871 kb/s
Writing application : VirtualDubMod 1.5.10.3 | www.virtualdub-fr.org || (build 2550/release)
Writing library : VirtualDubMod build 2550/release
Video
ID : 0
Format : MPEG-4 Visual
Format profile : Advanced Simple@L5
Format settings, BVOP : 1
Format settings, QPel : No
Format settings, GMC : No warppoints
Format settings, Matrix : Custom
Codec ID : XVID
Codec ID/Hint : XviD
Duration : 1 h 48 min
Bit rate : 2 022 kb/s
Width : 720 pixels
Height : 304 pixels
Display aspect ratio : 2.35:1
Frame rate : 23.976 (24000/1001) FPS
Color space : YUV
Chroma subsampling : 4:2:0
Bit depth : 8 bits
Scan type : Progressive
Compression mode : Lossy
Bits/(Pixel*Frame) : 0.385
Stream size : 1.53 GiB (70%)
Writing library : XviD 67
Audio #1
ID : 1
Format : AC-3
Format/Info : Audio Coding 3
Mode extension : CM (complete main)
Format settings, Endianness : Big
Codec ID : 2000
Duration : 1 h 48 min
Bit rate mode : Constant
Bit rate : 384 kb/s
Channel(s) : 6 channels
Channel positions : Front: L C R, Side: L R, LFE
Sampling rate : 48.0 kHz
Frame rate : 31.250 FPS (1536 spf)
Bit depth : 16 bits
Compression mode : Lossy
Stream size : 297 MiB (13%)
Alignment : Split accross interleaves
Interleave, duration : 42 ms (1.00 video frame)
Interleave, preload duratio : 500 ms
Audio #2
ID : 2
Format : AC-3
Format/Info : Audio Coding 3
Mode extension : CM (complete main)
Format settings, Endianness : Big
Codec ID : 2000
Duration : 1 h 48 min
Bit rate mode : Constant
Bit rate : 448 kb/s
Channel(s) : 6 channels
Channel positions : Front: L C R, Side: L R, LFE
Sampling rate : 48.0 kHz
Frame rate : 31.250 FPS (1536 spf)
Bit depth : 16 bits
Compression mode : Lossy
Stream size : 347 MiB (16%)
Alignment : Split accross interleaves
Interleave, duration : 42 ms (1.00 video frame)
Interleave, preload duratio : 500 ms

Скриншоты

[Profile]  [PM] 
Display posts:    
Reply to topic

Current time is: 28-Nov 18:54

All times are UTC + 2



You cannot post new topics in this forum
You cannot reply to topics in this forum
You cannot edit your posts in this forum
You cannot delete your posts in this forum
You cannot vote in polls in this forum
You cannot attach files in this forum
You cannot download files in this forum