Плохой Санта 2 / Bad Santa 2 (Марк Уотерс / Mark Waters) [2016, США, драма, комедия, криминал, BDRip-AVC] [Расширенная версия / Unrated] Dub + AVO + Original Eng + Sub Eng

Reply to topic
 
Author
Message

Satyr ®

Gender: Unknown

Longevity: 11 years

Posts: 15401

Reputation: 55 [+] [-]

Satyr · Post 22-Feb-2017 14:10

[Quote] 

Плохой Санта 2 / Bad Santa 2- Страна: США
Жанр: драма, комедия, криминал
Год выпуска: 2016
Продолжительность: 01:34:50
Перевод 1: Профессиональный (дублированный) iTunes + В. Котов на на эпизоды расширенной версии
Перевод 2: Авторский (одноголосый закадровый) Дмитрий «Гоблин» Пучков
Cубтитры: английские
Оригинальная аудиодорожка: английский
Режиссер: Марк Уотерс / Mark Waters
В ролях: Билли Боб Торнтон, Кэти Бейтс, Тони Кокс, Кристина Хендрикс, Бретт Келли, Райан Хансен, Дженни Зигрино, Джефф Скоурон
Описание: Продолжение новогодних приключений проходимца Вилли, который в канун Рождества, как всегда, переодевается в Санта-Клауса. Ограбить очередной супермаркет в этом наряде не представляет никаких проблем. Но в Рождество случаются всякие чудеса. Каким оно будет для Вилли на этот раз?
Дополнительная информация: В переводах Котова и Пучкова присутствует ненормативная лексика
Сэмпл: http://sendfile.su/1310516

Качество видео: BDRip-AVC (Bad.Santa.2.2016.UNRATED.BDREMUX.1080p.ExKinoRay)
Формат видео: MKV
Видео: x264, 1152x624 (1.85:1) 23,976 fps, ~2081 kbps, 0,121 bit/pixel
Аудио 1: 48 kHz, AC3 Dolby Digital, 3/2 (L,C,R,l,r) + LFE ch, ~384 kbps | iTunes + Котов
Аудио 2: 48 kHz, AC3 Dolby Digital, 3/2 (L,C,R,l,r) + LFE ch, ~384 kbps | Гоблин
Аудио 3: 48 kHz, AC3 Dolby Digital, 3/2 (L,C,R,l,r) + LFE ch, ~448 kbps | Английский
Формат субтитров: softsub (SRT)

MediaInfo

General
Unique ID : 229429838974481864196893378728451142604 (0xAC9A946754766944A160E0A994C873CC)
Format : Matroska
Format version : Version 4 / Version 2
File size : 2.18 GiB
Duration : 1h 34mn
Overall bit rate : 3 286 Kbps
Encoded date : UTC 2017-02-19 13:32:02
Writing application : mkvmerge v9.8.0 ('Kuglblids') 64bit
Writing library : libebml v1.3.4 + libmatroska v1.4.5
Video #1
ID : 1
Format : AVC
Format/Info : Advanced Video Codec
Format profile : High@L4.1
Format settings, CABAC : Yes
Format settings, ReFrames : 9 frames
Codec ID : V_MPEG4/ISO/AVC
Duration : 1h 34mn
Bit rate : 2 081 Kbps
Width : 1 152 pixels
Height : 624 pixels
Display aspect ratio : 1.85:1
Frame rate mode : Constant
Frame rate : 23.976 (24000/1001) fps
Color space : YUV
Chroma subsampling : 4:2:0
Bit depth : 8 bits
Scan type : Progressive
Bits/(Pixel*Frame) : 0.121
Stream size : 1.37 GiB (63%)
Writing library : x264 core 148 r2638 7599210
Encoding settings : cabac=1 / ref=9 / deblock=1:-3:-2 / analyse=0x3:0x133 / me=umh / subme=10 / psy=1 / psy_rd=1.00:0.00 / mixed_ref=1 / me_range=32 / chroma_me=1 / trellis=2 / 8x8dct=1 / cqm=0 / deadzone=21,11 / fast_pskip=0 / chroma_qp_offset=-2 / threads=6 / lookahead_threads=1 / sliced_threads=0 / nr=0 / decimate=1 / interlaced=0 / bluray_compat=0 / constrained_intra=0 / bframes=14 / b_pyramid=2 / b_adapt=2 / b_bias=0 / direct=1 / weightb=1 / open_gop=0 / weightp=2 / keyint=250 / keyint_min=23 / scenecut=40 / intra_refresh=0 / rc=2pass / mbtree=0 / bitrate=2081 / ratetol=1.0 / qcomp=0.65 / qpmin=0 / qpmax=69 / qpstep=4 / cplxblur=20.0 / qblur=0.5 / ip_ratio=1.40 / pb_ratio=1.30 / aq=3:0.90
Language : English
Default : Yes
Forced : No
Audio #2
ID : 2
Format : AC-3
Format/Info : Audio Coding 3
Mode extension : CM (complete main)
Format settings, Endianness : Big
Codec ID : A_AC3
Duration : 1h 34mn
Bit rate mode : Constant
Bit rate : 384 Kbps
Channel(s) : 6 channels
Channel positions : Front: L C R, Side: L R, LFE
Sampling rate : 48.0 KHz
Frame rate : 31.250 fps (1536 spf)
Compression mode : Lossy
Stream size : 260 MiB (12%)
Title : iTunes + Котов
Language : Russian
Default : Yes
Forced : No
Audio #3
ID : 3
Format : AC-3
Format/Info : Audio Coding 3
Mode extension : CM (complete main)
Format settings, Endianness : Big
Codec ID : A_AC3
Duration : 1h 34mn
Bit rate mode : Constant
Bit rate : 384 Kbps
Channel(s) : 6 channels
Channel positions : Front: L C R, Side: L R, LFE
Sampling rate : 48.0 KHz
Frame rate : 31.250 fps (1536 spf)
Compression mode : Lossy
Stream size : 260 MiB (12%)
Title : AVO - Гоблин
Language : Russian
Default : No
Forced : No
Audio #4
ID : 4
Format : AC-3
Format/Info : Audio Coding 3
Mode extension : CM (complete main)
Format settings, Endianness : Big
Codec ID : A_AC3
Duration : 1h 34mn
Bit rate mode : Constant
Bit rate : 448 Kbps
Channel(s) : 6 channels
Channel positions : Front: L C R, Side: L R, LFE
Sampling rate : 48.0 KHz
Frame rate : 31.250 fps (1536 spf)
Compression mode : Lossy
Stream size : 304 MiB (14%)
Language : English
Default : No
Forced : No
Text #5
ID : 5
Format : UTF-8
Codec ID : S_TEXT/UTF8
Codec ID/Info : UTF-8 Plain Text
Duration : 1h 27mn
Bit rate : 90 bps
Count of elements : 1378
Stream size : 58.1 KiB (0%)
Title : Full
Language : English
Default : No
Forced : No
Text #6
ID : 6
Format : UTF-8
Codec ID : S_TEXT/UTF8
Codec ID/Info : UTF-8 Plain Text
Duration : 1h 28mn
Bit rate : 97 bps
Count of elements : 1490
Stream size : 63.1 KiB (0%)
Title : SDH
Language : English
Default : No
Forced : No
Text #7
ID : 7
Format : UTF-8
Codec ID : S_TEXT/UTF8
Codec ID/Info : UTF-8 Plain Text
Duration : 1h 28mn
Bit rate : 127 bps
Count of elements : 1489
Stream size : 82.0 KiB (0%)
Title : SDH-Coored
Language : English
Default : No
Forced : No

лог

raw [info]: 1152x624p 1:1 @ 24000/1001 fps (cfr)
x264 [info]: using SAR=1/1
x264 [info]: using cpu capabilities: MMX2 SSE2Fast SSSE3 SSE4.2 AVX XOP FMA4 FMA3 LZCNT BMI1
x264 [info]: profile High, level 4.1
x264 [info]: frame I:1545 Avg QP:14.30 size:107472
x264 [info]: frame P:28484 Avg QP:17.38 size: 23247
x264 [info]: frame B:106397 Avg QP:20.23 size: 6039
x264 [info]: consecutive B-frames: 2.4% 2.2% 7.3% 18.2% 18.7% 34.6% 7.9% 2.5% 2.1% 1.1% 0.8% 0.5% 0.7% 0.7% 0.3%
x264 [info]: mb I I16..4: 4.3% 80.5% 15.2%
x264 [info]: mb P I16..4: 1.1% 6.1% 1.0% P16..4: 42.7% 23.5% 16.3% 0.4% 0.1% skip: 8.7%
x264 [info]: mb B I16..4: 0.0% 0.3% 0.0% B16..8: 39.4% 9.6% 2.2% direct: 2.9% skip:45.5% L0:45.0% L1:46.5% BI: 8.4%
x264 [info]: 8x8 transform intra:76.2% inter:64.5%
x264 [info]: coded y,uvDC,uvAC intra: 82.5% 88.5% 71.9% inter: 12.5% 15.4% 4.7%
x264 [info]: i16 v,h,dc,p: 31% 13% 6% 50%
x264 [info]: i8 v,h,dc,ddl,ddr,vr,hd,vl,hu: 11% 9% 6% 10% 13% 13% 13% 12% 13%
x264 [info]: i4 v,h,dc,ddl,ddr,vr,hd,vl,hu: 10% 7% 3% 11% 16% 14% 14% 12% 13%
x264 [info]: i8c dc,h,v,p: 45% 18% 18% 20%
x264 [info]: Weighted P-Frames: Y:5.7% UV:3.8%
x264 [info]: ref P L0: 46.9% 8.9% 19.0% 7.1% 5.8% 4.0% 4.2% 1.9% 2.0% 0.3% 0.0%
x264 [info]: ref B L0: 67.4% 14.7% 7.4% 3.9% 2.7% 2.1% 1.4% 0.4%
x264 [info]: ref B L1: 89.9% 10.1%
x264 [info]: kb/s:2067.76
x264 [total]: encoded 136426 frames, 7.88 fps, 2067.76 kb/s

Скриншоты


[Profile]  [PM] 
Display posts:    
Reply to topic

Current time is: 28-Nov 18:53

All times are UTC + 2



You cannot post new topics in this forum
You cannot reply to topics in this forum
You cannot edit your posts in this forum
You cannot delete your posts in this forum
You cannot vote in polls in this forum
You cannot attach files in this forum
You cannot download files in this forum