Жизнь или что-то вроде того / Life or something like it (Стивен Херек / Stephen Herek) [2002, США, мелодрама, комедия, WEB-DLRip] DVO (Петр Гланц и Евгения Лютая)

Reply to topic
 
Author
Message

Wolf ®

Gender: Unknown

Longevity: 11 years

Posts: 2860

Reputation: 0 [+] [-]

Wolf · Post 22-Feb-2017 18:15

[Quote] 

Жизнь или что-то вроде того / Life or something like it«What if you only had 7 days to live?» Страна: США
Жанр: мелодрама, комедия
Год выпуска: 2002
Продолжительность: 01:43:36.
Перевод: Профессиональный (двухголосый закадровый) - (Петр Гланц и Евгения Лютая)
Cубтитры: нет
Оригинальная аудиодорожка: нет
Режиссер: Стивен Херек / Stephen Herek
В ролях: Анджелина Джоли, Эдвард Бёрнс, Тони Шэлуб, Кристиан Кэйн, Джеймс Гэммон, Мелисса Эррико, Стоккард Чэннинг, Лиза Торнхилл, Грегори Итцин
Описание: «Ты умрешь в следующий четверг». Конечно, на эту фразу бомжа-предсказателя можно было не обращать никакого внимания. Но он угадал, что утром будет град и с каким счетом закончится футбольный матч. А это значит, что через неделю ты умрешь… наверное.
Репортеру Лэнни не повезло — именно ей была адресована фраза загадочного бомжа. Она хочет долго жить, у нее есть жених, которого она, наверное, любит. Но если осталось жить всего семь дней, то все это, скорее всего, теперь неважно? Надо что-то сделать, ведь еще можно изменить свою судьбу. Или уже нельзя?
Сэмпл: http://multi-up.com/1141828
Качество видео: WEB-DLRip
Исходник: Life.or.Something.Like.It.2002.720p.WEB-DL.DD5.1.H264-FGT
Формат видео: AVI
Видео: 720x304 (2.37:1), 23.976 fps, XviD build 65 ~1560 kbps avg, 0.30 bit/pixel
Аудио RUS: 48 kHz, AC3 Dolby Digital, 3/2 (L,C,R,l,r) + LFE ch, ~448 kbps
Rip by Ториял для

MediaInfo

Общее
Полное имя : D:\Фильмы\Life or something like It.2002.Toriyal.Rutracker.avi
Формат : AVI
Формат/Информация : Audio Video Interleave
Размер файла : 1,46 Гбайт
Продолжительность : 1 ч. 43 м.
Общий поток : 2018 Кбит/сек
Программа кодирования : VirtualDubMod 1.5.10.3 | www.virtualdub-fr.org || (build 2550/release)
Библиотека кодирования : VirtualDubMod build 2550/release
Видео
Идентификатор : 0
Формат : MPEG-4 Visual
Профиль формата : Advanced Simple@L5
Параметр BVOP формата : 1
Параметр QPel формата : Нет
Параметр GMC формата : Без точки перехода
Параметр матрицы формата : Выборочная
Идентификатор кодека : XVID
Идентификатор кодека/Подсказка : XviD
Продолжительность : 1 ч. 43 м.
Битрейт : 1561 Кбит/сек
Ширина : 720 пикселей
Высота : 304 пикселя
Соотношение сторон : 2,35:1
Частота кадров : 23,976 (24000/1001) кадра/сек
Цветовое пространство : YUV
Субдискретизация насыщенности : 4:2:0
Битовая глубина : 8 бит
Тип развёртки : Прогрессивная
Метод сжатия : С потерями
Бит/(Пиксели*Кадры) : 0.297
Размер потока : 1,13 Гбайт (77%)
Библиотека кодирования : XviD 65
Аудио
Идентификатор : 1
Формат : AC-3
Формат/Информация : Audio Coding 3
Расширение режима : CM (complete main)
Параметр Endianness формата : Big
Идентификатор кодека : 2000
Продолжительность : 1 ч. 43 м.
Вид битрейта : Постоянный
Битрейт : 448 Кбит/сек
Каналы : 6 каналов
Расположение каналов : Front: L C R, Side: L R, LFE
Частота : 48,0 КГц
Частота кадров : 31,250 кадров/сек (1536 spf)
Битовая глубина : 16 бит
Метод сжатия : С потерями
Размер потока : 332 Мбайт (22%)
Выравнивание : Разделение по промежуткам
Продолжительность промежутка : 42 мс. (1,00 видеокадр)
Время предзагрузки промежутка : 500 мс.

Скриншоты

[Profile]  [PM] 
Display posts:    
Reply to topic

Current time is: 28-Nov 19:44

All times are UTC + 2



You cannot post new topics in this forum
You cannot reply to topics in this forum
You cannot edit your posts in this forum
You cannot delete your posts in this forum
You cannot vote in polls in this forum
You cannot attach files in this forum
You cannot download files in this forum