Иногда они возвращаются / Sometimes They Come Back (Том Маклафлин / Tom McLoughlin) [1991, США, ужасы, триллер, драма, экранизация, BDRemux 1080p] MVO (Viking Video / Videofilm / R5) + DVO (НТВ+) + Sub Eng + Original Eng

Reply to topic
 
Author
Message

Faust ®

Gender: Unknown

Longevity: 9 years 2 months

Posts: 14058

Reputation: 0 [+] [-]

Faust · Post 22-Feb-2017 18:15

[Quote] 

Иногда они возвращаются / Sometimes They Come Back
Страна: США
Жанр: ужасы, триллер, драма, экранизация
Год выпуска: 1991
Продолжительность: 01:38:06
-
Перевод 1: Профессиональный (многоголосый закадровый) Viking Video / Videofilm / R5
Перевод 2: Профессиональный (двухголосый закадровый) НТВ+
Cубтитры: английские (полные)
Оригинальная аудиодорожка: английский
-
Режиссер: Том Маклафлин / Tom McLoughlin
В ролях: Тим Мэтисон, Брук Эдамс, Роберт Раслер, Крис Деметрал, Роберт Хай Гормен, Уильям Сэндерсон, Николас Сэдлер, Бентли Митчэм, Мэтт Нолан, Тасиа Валенза
-
Описание: Зрелый мужчина приезжает вместе с семьей (женой и сыном) в город, где прошло его детство. В детстве он стал свидетелем убийства своего брата, и того, что поезд раздавил убийц брата. С появлением героя в городе, появляются и трое убийц брата…
-

-
Сэмпл: http://sendfile.su/1311087
-
Тип релиза: BDRemux 1080p
Контейнер: MKV
Видео: MPEG-4 AVC, 1920x1080p (16:9), 23.976 fps, 24500 kbps
Аудио 1: русский / AC3 / 2.0 / 48 kHz / 192 kbps / 16 bit || MVO Viking Video / Videofilm / R5
Аудио 2: русский / AC3 / 2.0 / 48 kHz / 192 kbps / 16 bit || DVO НТВ+
Аудио 3: английский / DTS-HD MA / 2.0 / 48 kHz / 1662 kbps / 16 bit || (DTS Core: 2.0, 48 kHz, 1509 kbps, 16-bit) || ENG
Формат субтитров: softsub (SRT)
Главы: есть

MediaInfo

General
Unique ID : 215792971296878815183306661629591526519 (0xA25836EAD766231FBD8210C82FE79C77)
Complete name : C:\Users\ALEX\Desktop\Фильмы\HD\Sometimes.They.Come.Back.1991.BDRemux.1080p.2xRus.Eng.Sub.Chpt.mkv
Format : Matroska
Format version : Version 4 / Version 2
File size : 18.2 GiB
Duration : 1 h 38 min
Overall bit rate mode : Variable
Overall bit rate : 26.5 Mb/s
Movie name : Sometimes They Come Back.BDRemux
Encoded date : UTC 2017-02-21 11:22:55
Writing application : mkvmerge v8.5.2 ('Crosses') 64bit
Writing library : libebml v1.3.3 + libmatroska v1.4.4
Video
ID : 1
Format : AVC
Format/Info : Advanced Video Codec
Format profile : High@L4.1
Format settings, CABAC : Yes
Format settings, ReFrames : 4 frames
Format settings, GOP : M=4, N=24
Codec ID : V_MPEG4/ISO/AVC
Duration : 1 h 38 min
Bit rate mode : Variable
Bit rate : 24.5 Mb/s
Maximum bit rate : 30.0 Mb/s
Width : 1 920 pixels
Height : 1 080 pixels
Display aspect ratio : 16:9
Frame rate mode : Constant
Frame rate : 23.976 (24000/1001) FPS
Standard : NTSC
Color space : YUV
Chroma subsampling : 4:2:0
Bit depth : 8 bits
Scan type : Progressive
Bits/(Pixel*Frame) : 0.493
Stream size : 16.8 GiB (92%)
Title : Sometimes They Come Back.BDRemux
Language : German
Default : Yes
Forced : No
Color range : Limited
Color primaries : BT.709
Transfer characteristics : BT.709
Matrix coefficients : BT.709
Audio #1
ID : 2
Format : AC-3
Format/Info : Audio Coding 3
Mode extension : CM (complete main)
Format settings, Endianness : Big
Codec ID : A_AC3
Duration : 1 h 38 min
Bit rate mode : Constant
Bit rate : 192 kb/s
Channel(s) : 2 channels
Channel positions : Front: L R
Sampling rate : 48.0 kHz
Frame rate : 31.250 FPS (1536 spf)
Compression mode : Lossy
Stream size : 135 MiB (1%)
Title : MVO (Viking Video / Videofilm / R5)
Language : Russian
Default : Yes
Forced : No
Audio #2
ID : 3
Format : AC-3
Format/Info : Audio Coding 3
Mode extension : CM (complete main)
Format settings, Endianness : Big
Codec ID : A_AC3
Duration : 1 h 38 min
Bit rate mode : Constant
Bit rate : 192 kb/s
Channel(s) : 2 channels
Channel positions : Front: L R
Sampling rate : 48.0 kHz
Frame rate : 31.250 FPS (1536 spf)
Compression mode : Lossy
Stream size : 135 MiB (1%)
Title : DVO (НТВ+)
Language : Russian
Default : No
Forced : No
Audio #3
ID : 4
Format : DTS
Format/Info : Digital Theater Systems
Format profile : MA / Core
Mode : 16
Format settings, Endianness : Big
Codec ID : A_DTS
Duration : 1 h 38 min
Bit rate mode : Variable / Constant
Bit rate : 1 662 kb/s / 1 509 kb/s
Channel(s) : 2 channels
Channel positions : Front: L R
Sampling rate : 48.0 kHz
Frame rate : 93.750 FPS (512 spf)
Bit depth : 16 bits
Compression mode : Lossless / Lossy
Stream size : 1.14 GiB (6%)
Title : Original
Language : English
Default : No
Forced : No
Text
ID : 5
Format : UTF-8
Codec ID : S_TEXT/UTF8
Codec ID/Info : UTF-8 Plain Text
Duration : 1 h 33 min
Bit rate : 45 b/s
Count of elements : 844
Stream size : 31.0 KiB (0%)
Title : Full
Language : English
Default : No
Forced : No
Menu
00:00:00.000 : en:Chapter 1
00:04:57.797 : en:Chapter 2
00:11:01.619 : en:Chapter 3
00:20:49.581 : en:Chapter 4
00:26:45.770 : en:Chapter 5
00:32:48.091 : en:Chapter 6
00:39:05.176 : en:Chapter 7
00:46:46.094 : en:Chapter 8
00:50:32.779 : en:Chapter 9
00:54:19.047 : en:Chapter 10
00:58:04.564 : en:Chapter 11
01:02:37.754 : en:Chapter 12
01:06:46.752 : en:Chapter 13
01:15:32.194 : en:Chapter 14
01:24:54.297 : en:Chapter 15
01:35:01.904 : en:Chapter 16

Скриншоты

[Profile]  [PM] 
Display posts:    
Reply to topic

Current time is: 28-Nov 10:49

All times are UTC + 2



You cannot post new topics in this forum
You cannot reply to topics in this forum
You cannot edit your posts in this forum
You cannot delete your posts in this forum
You cannot vote in polls in this forum
You cannot attach files in this forum
You cannot download files in this forum