Ощущение лета / Ce sentiment de l\'ete / This Summer Feeling (Микаэль Херс / Mikhael Hers) [2015, Франция, Германия, драма, WEB-DL 1080p] Sub (Rus, Eng, Fre, Ger) + Original (Fre)

Reply to topic
 
Author
Message

Faust ®

Gender: Unknown

Longevity: 9 years 2 months

Posts: 14058

Reputation: 0 [+] [-]

Faust · Post 22-Feb-2017 18:15

[Quote] 

Ощущение лета
Ce sentiment de l'été / This Summer Feeling

Страна: Франция, Германия
Жанр: драма
Год выпуска: 2015
Продолжительность: 01:42:20
Перевод: Субтитры
Cубтитры: английские, немецкие, французские, русские
Оригинальная аудиодорожка: французский
Режиссер: Микаэль Херс / Mikhaël Hers
В ролях: Андерс Даниелсен Лье, Жюдит Шемла, Мари Ривьер, Федор Аткин, Дуня Сычева, Стефани Дауб-Лорен, Лана Купер, Тибо Винсон, Лорэ Кэлами, Тимоте Фон Дорп
Описание:
В середине лета тридцатилетняя Саша внезапно умирает. Ее спутник Лоуренс и ее сестра Зое сближаются, несмотря на то, что они мало знают друг друга. Они разделяют, как могут, боль и тяжесть утраты между Берлином, Парижем и Нью-Йорком. Три лета, три города: время, потребовавшееся им для того, чтобы вновь увидеть свет, поддерживаемым воспоминаниями о той, которую они любили.
- ||

участник фестиваля
2O17 года

-
Тип релиза: WEB-DL 1080p
Контейнер: MKV
Видео: AVC (x264), 1912x1030 (1.85:1) at 25,000 fps, 5049 Кbps
Аудио 1: AC3; 384 Kbps; CBR; 6 ch; 48 khz | Французский |
Формат субтитров: softsub (SRT);

Скриншоты || x264 Info || MediaInfo || Notes

MediaInfo

General
Unique ID                                : 237879536238704450824471431721405186129 (0xB2F5EEA4A731B14AACA12671B1550051)
Complete name                            : Ощущение лета.2015.RUSSUB.1080p.WEB-DL.x264-SiGeRiS.mkv
Format                                   : Matroska
Format version                           : Version 4 / Version 2
File size                                : 3.96 GiB
Duration                                 : 1h 42mn
Overall bit rate                         : 5 543 Kbps
Movie name                               : This Summer Feeling [2015] [1080p] RUSSUB
Encoded date                             : UTC 2017-02-21 11:07:29
Writing application                      : mkvmerge v7.8.0 ('River Man') 32bit built on Mar 27 2015 16:18:02
Writing library                          : libebml v1.3.1 + libmatroska v1.4.2
Video
ID                                       : 1
Format                                   : AVC
Format/Info                              : Advanced Video Codec
Format profile                           : High@L4.0
Format settings, CABAC                   : Yes
Format settings, ReFrames                : 4 frames
Codec ID                                 : V_MPEG4/ISO/AVC
Duration                                 : 1h 42mn
Bit rate                                 : 5 049 Kbps
Width                                    : 1 912 pixels
Height                                   : 1 030 pixels
Display aspect ratio                     : 1.85:1
Frame rate mode                          : Constant
Frame rate                               : 25.000 fps
Color space                              : YUV
Chroma subsampling                       : 4:2:0
Bit depth                                : 8 bits
Scan type                                : Progressive
Bits/(Pixel*Frame)                       : 0.103
Stream size                              : 3.61 GiB (91%)
Title                                    : profile.php?mode=viewprofile&u=22488948
Language                                 : French
Default                                  : Yes
Forced                                   : No
Color primaries                          : BT.709
Transfer characteristics                 : BT.709
Matrix coefficients                      : BT.709
Color range                              : Limited
Audio
ID                                       : 2
Format                                   : AC-3
Format/Info                              : Audio Coding 3
Mode extension                           : CM (complete main)
Format settings, Endianness              : Big
Codec ID                                 : A_AC3
Duration                                 : 1h 42mn
Bit rate mode                            : Constant
Bit rate                                 : 384 Kbps
Channel(s)                               : 6 channels
Channel positions                        : Front: L C R, Side: L R, LFE
Sampling rate                            : 48.0 KHz
Bit depth                                : 16 bits
Compression mode                         : Lossy
Stream size                              : 281 MiB (7%)
Language                                 : French
Default                                  : Yes
Forced                                   : No
Text #1
ID                                       : 3
Format                                   : UTF-8
Codec ID                                 : S_TEXT/UTF8
Codec ID/Info                            : UTF-8 Plain Text
Language                                 : Russian
Default                                  : Yes
Forced                                   : No
Text #2
ID                                       : 4
Format                                   : UTF-8
Codec ID                                 : S_TEXT/UTF8
Codec ID/Info                            : UTF-8 Plain Text
Language                                 : French
Default                                  : No
Forced                                   : No
Text #3
ID                                       : 5
Format                                   : UTF-8
Codec ID                                 : S_TEXT/UTF8
Codec ID/Info                            : UTF-8 Plain Text
Title                                    : forced
Language                                 : French
Default                                  : No
Forced                                   : No
Text #4
ID                                       : 6
Format                                   : UTF-8
Codec ID                                 : S_TEXT/UTF8
Codec ID/Info                            : UTF-8 Plain Text
Language                                 : German
Default                                  : No
Forced                                   : No
Text #5
ID                                       : 7
Format                                   : UTF-8
Codec ID                                 : S_TEXT/UTF8
Codec ID/Info                            : UTF-8 Plain Text
Language                                 : English
Default                                  : No
Forced                                   : No
За поиск исходника, огромная благодарность Slipknot_cooler
[Profile]  [PM] 
Display posts:    
Reply to topic

Current time is: 01-Dec 05:25

All times are UTC + 2



You cannot post new topics in this forum
You cannot reply to topics in this forum
You cannot edit your posts in this forum
You cannot delete your posts in this forum
You cannot vote in polls in this forum
You cannot attach files in this forum
You cannot download files in this forum