Я весь твой / Искренне ваш / Je suis a vous tout de suite / I\'m All Yours (Байа Касми / Baya Kasmi) [2015, Франция, комедия, WEB-DL 1080p] Sub (Rus, Eng, Fre, Ger) + Original (Fre)

Reply to topic
 
Author
Message

Faust ®

Gender: Unknown

Longevity: 9 years 2 months

Posts: 14058

Reputation: 0 [+] [-]

Faust · Post 22-Feb-2017 18:15

[Quote] 

Я весь твой / Искренне ваш
Je suis à vous tout de suite / I'm All Yours

Страна: Франция
Жанр: комедия
Год выпуска: 2015
Продолжительность: 01:39:37
Перевод: Субтитры
Cубтитры: английские, немецкие, французские, русские
Оригинальная аудиодорожка: французский
Режиссер: Байа Касми / Baya Kasmi
В ролях: Вимала Понс, Mehdi Djaadi, Аньес Жауи, Рамзи Бедиа, Лорен Капеллуто, Клаудия Тагбо, Камелия Джордана, Анемон, Зинедин Суалем, Брюно Подалидес
Описание:
Ханне 30 лет, она очень обаятельна и не умеет ни в чем отказывать: ее поразил невроз доброты. Этот забавный семейный синдром поразил также и ее отца Омара, «социального бакалейщика», и ее мать Симону, «психолога на дому». Со своим братом Хакимом, сосредоточенным на своем алжирском происхождении и религии, ей не удается найти общий язык. Но непредвиденное событие заставило Ханну и Хакима вновь сблизиться...
- ||

участник фестиваля
2O17 года

-
Тип релиза: WEB-DL 1080p
Контейнер: MKV
Видео: AVC (x264), 1920x804 (2.40:1) at 24,000 fps, 4404 Кbps
Аудио 1: AC3; 384 Kbps; CBR; 6 ch; 48 khz | Французский |
Формат субтитров: softsub (SRT);

Скриншоты || x264 Info || MediaInfo || Notes

MediaInfo

General
Unique ID                                : 200021543204241093488202207847688971870 (0x967ABF7A2C3E09A4B63946BD7C0C265E)
Complete name                            : Я весь твой.2015.RUSSUB.1080p.WEB-DL.x264-SiGeRiS.mkv
Format                                   : Matroska
Format version                           : Version 4 / Version 2
File size                                : 3.40 GiB
Duration                                 : 1h 39mn
Overall bit rate                         : 4 885 Kbps
Movie name                               : I'm All Yours [2015] [1080p] RUSSUB
Encoded date                             : UTC 2017-02-21 11:00:48
Writing application                      : mkvmerge v7.8.0 ('River Man') 32bit built on Mar 27 2015 16:18:02
Writing library                          : libebml v1.3.1 + libmatroska v1.4.2
Video
ID                                       : 1
Format                                   : AVC
Format/Info                              : Advanced Video Codec
Format profile                           : High@L4.0
Format settings, CABAC                   : Yes
Format settings, ReFrames                : 5 frames
Codec ID                                 : V_MPEG4/ISO/AVC
Duration                                 : 1h 39mn
Bit rate                                 : 4 404 Kbps
Width                                    : 1 920 pixels
Height                                   : 804 pixels
Display aspect ratio                     : 2.40:1
Frame rate mode                          : Constant
Frame rate                               : 24.000 fps
Color space                              : YUV
Chroma subsampling                       : 4:2:0
Bit depth                                : 8 bits
Scan type                                : Progressive
Bits/(Pixel*Frame)                       : 0.119
Stream size                              : 3.06 GiB (90%)
Title                                    : profile.php?mode=viewprofile&u=22488948
Language                                 : French
Default                                  : Yes
Forced                                   : No
Color primaries                          : BT.709
Transfer characteristics                 : BT.709
Matrix coefficients                      : BT.709
Color range                              : Limited
Audio
ID                                       : 2
Format                                   : AC-3
Format/Info                              : Audio Coding 3
Mode extension                           : CM (complete main)
Format settings, Endianness              : Big
Codec ID                                 : A_AC3
Duration                                 : 1h 39mn
Bit rate mode                            : Constant
Bit rate                                 : 384 Kbps
Channel(s)                               : 6 channels
Channel positions                        : Front: L C R, Side: L R, LFE
Sampling rate                            : 48.0 KHz
Bit depth                                : 16 bits
Compression mode                         : Lossy
Stream size                              : 274 MiB (8%)
Language                                 : French
Default                                  : Yes
Forced                                   : No
Text #1
ID                                       : 3
Format                                   : UTF-8
Codec ID                                 : S_TEXT/UTF8
Codec ID/Info                            : UTF-8 Plain Text
Language                                 : Russian
Default                                  : Yes
Forced                                   : No
Text #2
ID                                       : 4
Format                                   : UTF-8
Codec ID                                 : S_TEXT/UTF8
Codec ID/Info                            : UTF-8 Plain Text
Language                                 : German
Default                                  : No
Forced                                   : No
Text #3
ID                                       : 5
Format                                   : UTF-8
Codec ID                                 : S_TEXT/UTF8
Codec ID/Info                            : UTF-8 Plain Text
Language                                 : French
Default                                  : No
Forced                                   : No
Text #4
ID                                       : 6
Format                                   : UTF-8
Codec ID                                 : S_TEXT/UTF8
Codec ID/Info                            : UTF-8 Plain Text
Language                                 : English
Default                                  : No
Forced                                   : No
За поиск исходника, огромная благодарность Slipknot_cooler
[Profile]  [PM] 
Display posts:    
Reply to topic

Current time is: 28-Nov 10:49

All times are UTC + 2



You cannot post new topics in this forum
You cannot reply to topics in this forum
You cannot edit your posts in this forum
You cannot delete your posts in this forum
You cannot vote in polls in this forum
You cannot attach files in this forum
You cannot download files in this forum