Фантазм 5: Уничтожитель / Phantasm: Ravager (Дэвид Хартман / David Hartman) [2016, США, ужасы, боевик, BDRemux 1080p] MVO (Синема УС) + AVO (Антон Алексеев) + VO (Дмитрий Джейнтор) + VO (Хихикающий доктор) + Sub Rus, Eng + Original Eng

Reply to topic
 
Author
Message

Faust ®

Gender: Unknown

Longevity: 10 years

Posts: 16172

Reputation: 0 [+] [-]

Faust · Post 22-Feb-2017 18:15

[Quote] 

Фантазм 5: Уничтожитель / Phantasm: Ravager
Страна: США
Жанр: ужасы, боевик
Год выпуска: 2016
Продолжительность: 01:25:31
-
Перевод 1: Любительский (многоголосый закадровый) Синема УС
Перевод 2: Авторский (одноголосый закадровый) Антон Алексеев от pasha78, работа над дорогой - Diablo
Перевод 3: Одноголосый закадровый Дмитрий Джейнтор - Occult Worship Productions
Перевод 4: Одноголосый закадровый Хихикающий доктор (убрана реклама - в начале и в конце)
Cубтитры: русские и английские (полные)
Оригинальная аудиодорожка: английский
-
Режиссер: Дэвид Хартман / David Hartman
В ролях: Рэджи Бэннистер, А. Майкл Болдуин, Кэти Лестер, Билл Торнбери, Энгус Скримм, Дэниэл Швайгер, Дэниэл Робак, Джей Олива, Глория Линн Генри, Кин Окада
-
Описание: Реджи и Майк сомневаются, что все, что с ними происходило, было на самом деле, и все это просто игры разума. Но как это может происходить одновременно у всех в голове…
-

-
Сэмпл: http://sendfile.su/1310857
-
Тип релиза: BDRemux 1080p
Контейнер: MKV
Видео: MPEG-4 AVC, 1920x1080p (16:9), 23.976 fps, 22996 kbps
Аудио 1: русский / AC3 / 2.0 / 48 kHz / 384 kbps / 16 bit || Синема УС
Аудио 2: русский / DTS-HD MA / 5.1 / 48 kHz / 2309 kbps / 16 bit || (DTS Core: 5.1, 48 kHz, 1509 kbps, 16-bit) || Антон Алексеев
Аудио 3: русский / AC3 / 2.0 / 48 kHz / 224 kbps / 16 bit || Дмитрий Джейнтор
Аудио 4: русский / AC3 / 5.1 / 48 kHz / 384 kbps / 16 bit || Хихикающий доктор
Аудио 5: английский / DTS-HD MA / 5.1 / 48 kHz / 2285 kbps / 16 bit || (DTS Core: 5.1, 48 kHz, 1509 kbps, 16-bit) || ENG
Формат субтитров: softsub (SRT)
Главы: есть

MediaInfo

General
Unique ID : 204650246922240500780651138543096192190 (0x99F63430A70B4399B5FBE246EE005CBE)
Complete name : C:\Users\ALEX\Desktop\Фильмы\HD\Phantasm.Ravager.2016.BDRemux.1080p.4xRus.Eng.Subs.Chpt.mkv
Format : Matroska
Format version : Version 4 / Version 2
File size : 17.1 GiB
Duration : 1 h 25 min
Overall bit rate mode : Variable
Overall bit rate : 28.6 Mb/s
Movie name : Phantasm: Ravager.BDRemux
Encoded date : UTC 2017-02-20 16:40:04
Writing application : mkvmerge v8.5.2 ('Crosses') 64bit
Writing library : libebml v1.3.3 + libmatroska v1.4.4
Video
ID : 1
Format : AVC
Format/Info : Advanced Video Codec
Format profile : High@L4.1
Format settings, CABAC : Yes
Format settings, ReFrames : 4 frames
Codec ID : V_MPEG4/ISO/AVC
Duration : 1 h 25 min
Bit rate mode : Variable
Bit rate : 23.0 Mb/s
Maximum bit rate : 28.0 Mb/s
Width : 1 920 pixels
Height : 1 080 pixels
Display aspect ratio : 16:9
Frame rate mode : Constant
Frame rate : 23.976 (24000/1001) FPS
Standard : NTSC
Color space : YUV
Chroma subsampling : 4:2:0
Bit depth : 8 bits
Scan type : Progressive
Bits/(Pixel*Frame) : 0.463
Stream size : 13.7 GiB (80%)
Title : Phantasm: Ravager.BDRemux
Language : English
Default : Yes
Forced : No
Color range : Limited
Color primaries : BT.709
Transfer characteristics : BT.709
Matrix coefficients : BT.709
Audio #1
ID : 2
Format : AC-3
Format/Info : Audio Coding 3
Mode extension : CM (complete main)
Format settings, Endianness : Big
Codec ID : A_AC3
Duration : 1 h 25 min
Bit rate mode : Constant
Bit rate : 384 kb/s
Channel(s) : 2 channels
Channel positions : Front: L R
Sampling rate : 48.0 kHz
Frame rate : 31.250 FPS (1536 spf)
Compression mode : Lossy
Stream size : 235 MiB (1%)
Title : MVO (Синема УС)
Language : Russian
Default : Yes
Forced : No
Audio #2
ID : 3
Format : DTS
Format/Info : Digital Theater Systems
Format profile : MA / Core
Mode : 16
Format settings, Endianness : Big
Codec ID : A_DTS
Duration : 1 h 25 min
Bit rate mode : Variable / Constant
Bit rate : 2 309 kb/s / 1 509 kb/s
Channel(s) : 6 channels
Channel positions : Front: L C R, Side: L R, LFE
Sampling rate : 48.0 kHz
Frame rate : 93.750 FPS (512 spf)
Bit depth : 16 bits
Compression mode : Lossless / Lossy
Stream size : 1.38 GiB (8%)
Title : AVO (Антон Алексеев)
Language : Russian
Default : No
Forced : No
Audio #3
ID : 4
Format : AC-3
Format/Info : Audio Coding 3
Mode extension : CM (complete main)
Format settings, Endianness : Big
Codec ID : A_AC3
Duration : 1 h 25 min
Bit rate mode : Constant
Bit rate : 224 kb/s
Channel(s) : 2 channels
Channel positions : Front: L R
Sampling rate : 48.0 kHz
Frame rate : 31.250 FPS (1536 spf)
Compression mode : Lossy
Stream size : 137 MiB (1%)
Title : VO (Дмитрий Джейнтор - Occult Worship Productions)
Language : Russian
Default : No
Forced : No
Audio #4
ID : 5
Format : AC-3
Format/Info : Audio Coding 3
Mode extension : CM (complete main)
Format settings, Endianness : Big
Codec ID : A_AC3
Duration : 1 h 25 min
Bit rate mode : Constant
Bit rate : 384 kb/s
Channel(s) : 6 channels
Channel positions : Front: L C R, Side: L R, LFE
Sampling rate : 48.0 kHz
Frame rate : 31.250 FPS (1536 spf)
Compression mode : Lossy
Stream size : 235 MiB (1%)
Title : VO (Хихикающий доктор)
Language : Russian
Default : No
Forced : No
Audio #5
ID : 6
Format : DTS
Format/Info : Digital Theater Systems
Format profile : MA / Core
Mode : 16
Format settings, Endianness : Big
Codec ID : A_DTS
Duration : 1 h 25 min
Bit rate mode : Variable / Constant
Bit rate : 2 285 kb/s / 1 509 kb/s
Channel(s) : 6 channels
Channel positions : Front: L C R, Side: L R, LFE
Sampling rate : 48.0 kHz
Frame rate : 93.750 FPS (512 spf)
Bit depth : 16 bits
Compression mode : Lossless / Lossy
Stream size : 1.36 GiB (8%)
Title : Original
Language : English
Default : No
Forced : No
Text #1
ID : 7
Format : UTF-8
Codec ID : S_TEXT/UTF8
Codec ID/Info : UTF-8 Plain Text
Duration : 1 h 18 min
Bit rate : 43 b/s
Count of elements : 645
Stream size : 25.1 KiB (0%)
Title : Full (by Дмитрий Джейнтор)
Language : Russian
Default : No
Forced : No
Text #2
ID : 8
Format : UTF-8
Codec ID : S_TEXT/UTF8
Codec ID/Info : UTF-8 Plain Text
Duration : 1 h 18 min
Bit rate : 29 b/s
Count of elements : 650
Stream size : 17.1 KiB (0%)
Title : Full
Language : English
Default : No
Forced : No
Menu
00:00:00.000 : en:00:00:00.000
00:10:24.958 : en:00:10:24.958
00:20:38.529 : en:00:20:38.529
00:31:55.956 : en:00:31:55.956
00:43:23.559 : en:00:43:23.559
00:50:46.460 : en:00:50:46.460
00:57:55.555 : en:00:57:55.555
01:04:00.920 : en:01:04:00.920
01:10:02.532 : en:01:10:02.532
01:17:09.166 : en:01:17:09.166

Скриншоты

[Profile]  [PM] 
Display posts:    
Reply to topic

Current time is: 25-Sep 22:10

All times are UTC + 2



You cannot post new topics in this forum
You cannot reply to topics in this forum
You cannot edit your posts in this forum
You cannot delete your posts in this forum
You cannot vote in polls in this forum
You cannot attach files in this forum
You cannot download files in this forum