Пропавший без вести / Missing (Коста-Гаврас / Costa-Gavras) [1982, США, драма, исторический, BDRip 720p] Dub (Ленфильм) + MVO (R5) + Sub Eng + Original Eng

Reply to topic
 
Author
Message

Faust ®

Gender: Unknown

Longevity: 9 years 2 months

Posts: 14058

Reputation: 0 [+] [-]

Faust · Post 22-Feb-2017 18:15

[Quote] 

Пропавший без вести / Missing
Страна: США
Студия: Universal Pictures, PolyGram Filmed Entertainment
Жанр: драма, исторический
Год выпуска: 1982
Продолжительность: 02:02:40
Перевод: Профессиональный (дублированный) - Ленинградского ордена Ленина киностудия "Ленфильм"
Перевод 2: Профессиональный (многоголосый закадровый) - R5
Перевод 3: Субтитры на непереведенные места
Cубтитры: русские (форс.), английские
Оригинальная аудиодорожка: английский
Режиссер: Коста-Гаврас / Costa-Gavras
В ролях: Джек Леммон, Сисси Спейсек, Мелани Мейрон, Джон Ши, Чарльз Чоффи, Дэвид Кленнон, Ричард Венчур, Джерри Хардин, Ричард Брэдфорд, Джо Регалбуто, Кит Шарабайка, Дженис Рул, Уорд Кастильо, Хансфорд Роу, Тина Ромеро, Ричард Уайтинг, Мартин ЛаСалль, Теренс Нельсон, Роберт Хитт, Феликс Гонсалес, М.Е. Риос, Хорхе Руссек, Эдна Ночоече, Алан Пенрит, Алекс Камачо, Мануэль Авила Камачо, Кимберли Фарр, Элизабет Кросс, Пьеро Кросс, Гари Ричардсон, Хосефина Эчанове, Роберт Джонстрит, Линда Сфирис, Хорхе Манчилла, Херардо Вигиль, Марио Вальдес, Хайме Гарса, Джо И. Томпкинс, Джон Фентон, Жаклин Эванс, Хорхе Сантойо, Хуан Васкес, Антонио Медельин, Альберт Кэйтс, Мигель Кейн, Гарри Копоян
Роли дублировали: Александр Голобородько, Лариса Луппиан, Евгений Ганелин, Вадим Яковлев, Игорь Добряков, Владимир Летенков, Андрей Толубеев
Описание: Молодой американский журналист Чарли таинственно исчезает во время военного переворота в Чили. Его отец Эд Хормэн и жена отправляются на розыски. Упрямый Эд, твердо верящий в демократические ценности и непременную помощь со стороны «дяди Сэма», никак не может понять, что всякие представления о справедливости здесь надо выбросить за ненадобностью. Что американские представители здесь действуют рука об руку с военной хунтой, пришедшей к власти в результате переворота. Что на отдельного человека всем наплевать. Что Чарли давно убит, как и тысячи других…
В основу фильма легла реальная история Чарльза Хормана, молодого журналиста из США, исчезнувшего в Чили после кровавого переворота 11 сентября 1973, когда к власти пришёл диктатор Аугусто Пиночет.
Доп. информация: В найденный в сети рип, содержащий английский оригинал и английские субтитры, вставлены два русских перевода из раздачи - http://torrentsland.com.ua/forum/viewtopic.php?t=4560710 - и подправленные по таймингу русские субтитры на непереведенные места из ДВД-раздачи - http://torrentsland.com.ua/forum/viewtopic.php?t=357243
Сэмпл: http://multi-up.com/1141874
Тип релиза: BDRip 720p
Контейнер: MKV
Видео: 8655 Кбит/сек, NTSC 1280*694 (1,85:1), 23,976 кадра/сек, AVC
Аудио: Русский, 192 Кбит/сек, 48,0 КГц, 2 канала, AC-3 - дубляж
Аудио 2: Русский, 192 Кбит/сек, 48,0 КГц, 2 канала, AC-3 - многоголоска
Аудио 3: Английский, 192 Кбит/сек, 48,0 КГц, 2 канала, AC-3
Формат субтитров: UTF

MediaInfo

ОбщееУникальный идентификатор                 : 250290562131202148569131951005615441289 (0xBC4C357693D96CD7BB576A51953AC589)Полное имя                               : Q:\MONAR\Видео\Художественные фильмы\Зарубежное кино\Пропавший без вести (1982).mkvФормат                                   : MatroskaВерсия формата                           : Version 4 / Version 2Размер файла                             : 7,91 ГбайтПродолжительность                        : 2 ч. 2 м.Общий поток                              : 9231 Кбит/секНазвание фильма                          : The Missing (1982)Дата кодирования                         : UTC 2017-02-15 17:35:24Программа кодирования                    : mkvmerge v9.6.0 ('Slave To Your Mind') 64bitБиблиотека кодирования                   : libebml v1.3.4 + libmatroska v1.4.5
ВидеоИдентификатор : 1Формат : AVCФормат/Информация : Advanced Video CodecПрофиль формата : High@L4.1Параметр CABAC формата : ДаПараметр ReFrames формата : 9 кадровИдентификатор кодека : V_MPEG4/ISO/AVCПродолжительность : 2 ч. 2 м.Битрейт : 8655 Кбит/секШирина : 1280 пикселейВысота : 694 пикселяСоотношение сторон : 1,85:1Режим частоты кадров : ПостоянныйЧастота кадров : 23,976 (24000/1001) кадра/секЦветовое пространство : YUVСубдискретизация насыщенности : 4:2:0Битовая глубина : 8 битТип развёртки : ПрогрессивнаяБит/(Пиксели*Кадры) : 0.406Размер потока : 7,42 Гбайт (94%)Библиотека кодирования : x264 core 146 r2538kMod 121396cНастройки программы : cabac=1 / ref=9 / deblock=1:-3:-3 / analyse=0x3:0x133 / me=umh / subme=10 / psy=1 / fade_compensate=0.00 / psy_rd=1.00:0.00 / mixed_ref=1 / me_range=64 / chroma_me=1 / trellis=2 / 8x8dct=1 / cqm=0 / deadzone=21,11 / fast_pskip=0 / chroma_qp_offset=-2 / threads=12 / lookahead_threads=2 / sliced_threads=0 / nr=0 / decimate=0 / interlaced=0 / bluray_compat=0 / constrained_intra=0 / fgo=0 / bframes=9 / b_pyramid=2 / b_adapt=2 / b_bias=0 / direct=3 / weightb=1 / open_gop=0 / weightp=2 / keyint=250 / keyint_min=23 / scenecut=40 / intra_refresh=0 / rc_lookahead=40 / rc=crf / mbtree=0 / crf=16.8500 / qcomp=0.70 / qpmin=0 / qpmax=69 / qpstep=4 / vbv_maxrate=50000 / vbv_bufsize=62500 / crf_max=0.0 / nal_hrd=none / filler=0 / ip_ratio=1.30 / pb_ratio=1.20 / aq=1:0.60Язык : EnglishDefault : ДаForced : НетЦветовой диапазон : LimitedОсновные цвета : BT.709Характеристики трансфера : BT.709Коэффициенты матрицы : BT.709
Аудио #1Идентификатор : 2Формат : AC-3Формат/Информация : Audio Coding 3Расширение режима : CM (complete main)Параметр Endianness формата : BigИдентификатор кодека : A_AC3Продолжительность : 2 ч. 2 м.Вид битрейта : ПостоянныйБитрейт : 192 Кбит/секКаналы : 2 каналаРасположение каналов : Front: L RЧастота : 48,0 КГцЧастота кадров : 31,250 кадров/сек (1536 spf)Битовая глубина : 16 битМетод сжатия : С потерямиРазмер потока : 168 Мбайт (2%)Заголовок : dubЯзык : RussianDefault : ДаForced : Нет
Аудио #2Идентификатор : 3Формат : AC-3Формат/Информация : Audio Coding 3Расширение режима : CM (complete main)Параметр Endianness формата : BigИдентификатор кодека : A_AC3Продолжительность : 2 ч. 2 м.Вид битрейта : ПостоянныйБитрейт : 192 Кбит/секКаналы : 2 каналаРасположение каналов : Front: L RЧастота : 48,0 КГцЧастота кадров : 31,250 кадров/сек (1536 spf)Битовая глубина : 16 битМетод сжатия : С потерямиРазмер потока : 168 Мбайт (2%)Заголовок : MVOЯзык : RussianDefault : НетForced : Нет
Аудио #3Идентификатор : 4Формат : AC-3Формат/Информация : Audio Coding 3Расширение режима : CM (complete main)Параметр Endianness формата : BigИдентификатор кодека : A_AC3Продолжительность : 2 ч. 2 м.Вид битрейта : ПостоянныйБитрейт : 192 Кбит/секКаналы : 2 каналаРасположение каналов : Front: L RЧастота : 48,0 КГцЧастота кадров : 31,250 кадров/сек (1536 spf)Битовая глубина : 16 битМетод сжатия : С потерямиРазмер потока : 168 Мбайт (2%)Заголовок : originalЯзык : EnglishDefault : НетForced : Нет
Текст #1Идентификатор : 5Формат : UTF-8Идентификатор кодека : S_TEXT/UTF8Идентификатор кодека/Информация : UTF-8 Plain TextПродолжительность : 1 ч. 53 м.Битрейт : 1 бит/секCount of elements : 18Размер потока : 873 байт (0%)Заголовок : srtЯзык : RussianDefault : ДаForced : Нет
Текст #2Идентификатор : 6Формат : UTF-8Идентификатор кодека : S_TEXT/UTF8Идентификатор кодека/Информация : UTF-8 Plain TextПродолжительность : 1 ч. 59 м.Битрейт : 78 бит/секCount of elements : 1591Размер потока : 68,8 Кбайт (0%)Заголовок : srtЯзык : EnglishDefault : НетForced : Нет
Меню00:00:00.000 : en:00:00:00.00000:00:00.375 : en:00:00:00.37500:17:26.379 : en:00:17:26.37900:41:26.317 : en:00:41:26.31701:05:01.481 : en:01:05:01.48101:26:52.958 : en:01:26:52.95801:45:46.173 : en:01:45:46.173

Скриншоты

[Profile]  [PM] 
Display posts:    
Reply to topic

Current time is: 28-Nov 18:13

All times are UTC + 2



You cannot post new topics in this forum
You cannot reply to topics in this forum
You cannot edit your posts in this forum
You cannot delete your posts in this forum
You cannot vote in polls in this forum
You cannot attach files in this forum
You cannot download files in this forum