Планетариум / Planetarium (Ребекка Злотовски / Rebecca Zlotowski) [2016, Франция, Бельгия, Фэнтези, триллер, драма, мелодрама, детектив, WEB-DLRip] Dub

Reply to topic
 
Author
Message

Satyr ®

Gender: Unknown

Longevity: 11 years

Posts: 15401

Reputation: 55 [+] [-]

Satyr · Post 22-Feb-2017 18:15

[Quote] 

Планетариум / Planetarium
Страна: Франция, Бельгия
Жанр: Фэнтези, триллер, драма, мелодрама, детектив
Год выпуска: 2016
Продолжительность: 01:48:09
Перевод: Профессиональный (дублированный)
Cубтитры: нет
Оригинальная аудиодорожка: нет-Режиссер: Ребекка Злотовски / Rebecca Zlotowski-В ролях: Натали Портман, Лили-Роуз Мелоди Депп, Эммануэль Салинжер, Амира Касар, Пьер Сальвадори, Луи Гаррель, Давид Беннент, Дэмиен Шапель, Ежи Рогульский, Камилль Лелуш-Описание: В начале 1930-х годов две сестры с паранормальными способностями, Кейт и Лора, приезжают из Америки в Париж. Во время своих выступлений перед публикой они вводят зрителей в транс и устанавливают контакт с потусторонним миром. На один такой сеанс приходит Андрэ, хозяин большой парижской киностудии, который настолько впечатляется выступлением сестер, что предлагает им выгодный контракт. И вот уже Лора играет в кино, а Кейт производит опыты для ученых, изучающих сверхъестественные явления. Попытка запечатлеть призраков на кинопленке приводит к странным событиям, которые никто не может объяснить.-Качество видео: WEB-DLRip | Planetarium.2016.720p.WEB-DL.Rus.HDCLUB
Формат видео: AVI
Видео: 688x288 (2.39:1), 24.000 fps, XviD build 73 ~825 kbps avg, 0.17 bit/pixel
Аудио: 48 kHz, MPEG Layer 3, 2 ch, ~128.00 kbps avg-Скачать сэмпл-

MediaInfo

Format                      : AVI
Format/Info                 : Audio Video Interleave
File size                   : 745 MiB
Duration                    : 1 h 48 min
Overall bit rate            : 963 kb/s
Writing application         : VirtualDubMod 1.5.10.3 | www.virtualdub-fr.org || (build 2550/release)
Writing library             : VirtualDubMod build 2550/release
Video
ID                          : 0
Format                      : MPEG-4 Visual
Format profile              : Advanced Simple@L5
Format settings, BVOP       : 1
Format settings, QPel       : No
Format settings, GMC        : No warppoints
Format settings, Matrix     : Custom
Codec ID                    : XVID
Codec ID/Hint               : XviD
Duration                    : 1 h 48 min
Bit rate                    : 826 kb/s
Width                       : 688 pixels
Height                      : 288 pixels
Display aspect ratio        : 2.40:1
Frame rate                  : 24.000 FPS
Color space                 : YUV
Chroma subsampling          : 4:2:0
Bit depth                   : 8 bits
Scan type                   : Progressive
Compression mode            : Lossy
Bits/(Pixel*Frame)          : 0.174
Stream size                 : 639 MiB (86%)
Writing library             : XviD 73
Audio
ID                          : 1
Format                      : MPEG Audio
Format version              : Version 1
Format profile              : Layer 3
Codec ID                    : 55
Codec ID/Hint               : MP3
Duration                    : 1 h 48 min
Bit rate mode               : Constant
Bit rate                    : 128 kb/s
Channel(s)                  : 2 channels
Sampling rate               : 48.0 kHz
Compression mode            : Lossy
Stream size                 : 99.0 MiB (13%)
Alignment                   : Aligned on interleaves
Interleave, duration        : 42  ms (1.00 video frame)
Interleave, preload duratio : 504  ms
Writing library             : LAME3.99r
Encoding settings           : -m s -V 4 -q 2 -lowpass 17 -b 12

Скриншоты

[Profile]  [PM] 
Display posts:    
Reply to topic

Current time is: 28-Nov 09:27

All times are UTC + 2



You cannot post new topics in this forum
You cannot reply to topics in this forum
You cannot edit your posts in this forum
You cannot delete your posts in this forum
You cannot vote in polls in this forum
You cannot attach files in this forum
You cannot download files in this forum