Кроличья нора / Rabbit Hole (Джон Кэмерон Митчелл / John Cameron Mitchell) [2010, США, драма, BDRip-AVC] Dub

Reply to topic
 
Author
Message

Advocat ®

Gender: Unknown

Longevity: 11 years

Posts: 2910

Reputation: 0 [+] [-]

Advocat · Post 22-Feb-2017 22:20

[Quote] 

Кроличья нора
Rabbit Hole
«The only way out is through»

Страна: США
Жанр: драма
Год выпуска: 2010
Продолжительность: 01:31:28
Перевод: Профессиональный (полное дублирование) [R5]
Cубтитры: нет
Оригинальная аудиодорожка: нет
Режиссер: Джон Кэмерон Митчелл / John Cameron Mitchell
В ролях: Николь Кидман, Аарон Экхарт, Дайэнн Уист, Майлз Теллер, Тэмми Бланчард, Сандра О, Джанкарло Эспозито, Джон Тенни, Стефен Мэйлер, Майк Дойл, Роберта Уоллах, Патриция Кэлембер
Описание:
Восемь месяцев назад в семье Хауи и Бекки Корбетт произошла страшная трагедия — погиб их маленький сын. От ее последствий супруги не могут оправиться до сих пор. Каждый по-своему пытается восстановить душевный покой: Хауи играет в сквош с друзьями, Бекка проводит целые дни у плиты, оба ищут поддержки в группах психологической взаимопомощи.
Но время идет, а все усилия остаются тщетными. Брак трещит по швам, отношения с родными напряжены до предела, круг общения сокращается на глазах. Парадоксальным образом, луч надежды пробивает пелену безнадежности, когда судьба сводит Бекку с невольным виновником их несчастий — юным автором комиксов Джейсоном. Вместе героям предстоит понять, затягиваются ли раны прошлого хоть когда-нибудь.


Автор рипа: stalkerok
Сэмпл
Качество видео: BDRip-AVC [Rabbit.Hole.2010.Remux.HDCLUB]
Формат видео: MKV
Видео: 1932 Кбит/сек, 1024x576 (16:9), 23,976 кадр/сек, AVC
Аудио: русский, 384 Кбит/сек, 48 КГц, 16 бит, 5.1, AC3
Навигация по главам: есть

x264/MediaInfo

x264 [info]: frame I:1024 Avg QP:16.29 size: 71350
x264 [info]: frame P:27357 Avg QP:18.26 size: 22997
x264 [info]: frame B:103212 Avg QP:21.02 size: 6342
Общее
Уникальный идентификатор : 238675057919301126087492701280514950305 (0xB38F24E3E700DD4AA5453F17203544A1)
Полное имя : M:\!!!!!!!!!!!!!!!!!!!\Rabbit Hole (2010)\Rabbit.Hole.2010.BDRip-AVC.RUS.stalkerok.new-team.mkv
Формат : Matroska
Версия формата : Version 4 / Version 2
Размер файла : 1,51 Гбайт
Продолжительность : 1 ч. 31 м.
Общий поток : 2363 Кбит/сек
Название фильма : Rabbit Hole (2010) (Rip by stalkerok)
Дата кодирования : UTC 2017-02-21 11:23:24
Программа кодирования : mkvmerge v8.6.1 ('Flying') 64bit
Библиотека кодирования : libebml v1.3.3 + libmatroska v1.4.4
Видео
Идентификатор : 1
Формат : AVC
Формат/Информация : Advanced Video Codec
Профиль формата : High@L4.1
Параметр CABAC формата : Да
Параметр ReFrames формата : 13 кадров
Идентификатор кодека : V_MPEG4/ISO/AVC
Продолжительность : 1 ч. 31 м.
Битрейт : 1978 Кбит/сек
Ширина : 1024 пикселя
Высота : 576 пикселей
Соотношение сторон : 16:9
Режим частоты кадров : Постоянный
Частота кадров : 23,976 (24000/1001) кадра/сек
Цветовое пространство : YUV
Субдискретизация насыщенности : 4:2:0
Битовая глубина : 8 бит
Тип развёртки : Прогрессивная
Бит/(Пиксели*Кадры) : 0.140
Размер потока : 1,26 Гбайт (84%)
Заголовок : Rabbit Hole (2010) (Rip by stalkerok)
Библиотека кодирования : x264 core 148 r2705+54 9f484c1 t_mod_Custom [8-bit@all X86_64]
Настройки программы : cabac=1 / ref=13 / deblock=1:-3:-2 / analyse=0x3:0x133 / me=umh / subme=10 / psy=1 / fade_compensate=0.00 / psy_rd=1.00:0.00 / mixed_ref=1 / me_range=32 / chroma_me=1 / trellis=2 / 8x8dct=1 / cqm=0 / deadzone=21,11 / fast_pskip=0 / chroma_qp_offset=-2 / threads=12 / lookahead_threads=3 / sliced_threads=0 / nr=0 / decimate=1 / interlaced=0 / bluray_compat=0 / constrained_intra=0 / fgo=0 / bframes=14 / b_pyramid=2 / b_adapt=2 / b_bias=0 / direct=3 / weightb=1 / open_gop=0 / weightp=2 / keyint=240 / keyint_min=23 / scenecut=40 / intra_refresh=0 / rc_lookahead=60 / rc=crf / mbtree=0 / crf=18.4500 / qcomp=0.65 / qpmin=0:0:0 / qpmax=69:69:69 / qpstep=4 / vbv_maxrate=50000 / vbv_bufsize=62500 / crf_max=0.0 / nal_hrd=none / filler=0 / ip_ratio=1.40 / pb_ratio=1.30 / aq=3:0.90 / aq-sensitivity=10.00 / aq-factor=1.00:1.00:1.00 / aq2=0 / aq3=0
Default : Да
Forced : Нет
Аудио
Идентификатор : 2
Формат : AC-3
Формат/Информация : Audio Coding 3
Расширение режима : CM (complete main)
Параметр Endianness формата : Big
Идентификатор кодека : A_AC3
Продолжительность : 1 ч. 31 м.
Вид битрейта : Постоянный
Битрейт : 384 Кбит/сек
Каналы : 6 каналов
Расположение каналов : Front: L C R, Side: L R, LFE
Частота : 48,0 КГц
Частота кадров : 31,250 кадров/сек (1536 spf)
Метод сжатия : С потерями
Размер потока : 251 Мбайт (16%)
Язык : Russian
Default : Да
Forced : Нет
Меню
00:00:00.000 : en:Chapter 1
00:04:13.836 : en:Chapter 2
00:07:42.295 : en:Chapter 3
00:11:24.767 : en:Chapter 4
00:19:34.923 : en:Chapter 5
00:24:58.288 : en:Chapter 6
00:34:38.910 : en:Chapter 7
00:39:10.431 : en:Chapter 8
00:43:45.914 : en:Chapter 9
00:49:49.152 : en:Chapter 10
00:57:16.099 : en:Chapter 11
01:04:46.549 : en:Chapter 12
01:09:04.430 : en:Chapter 13
01:14:28.171 : en:Chapter 14
01:21:16.580 : en:Chapter 15
01:24:59.803 : en:Chapter 16

Скриншоты

[Profile]  [PM] 
Display posts:    
Reply to topic

Current time is: 01-Dec 03:54

All times are UTC + 2



You cannot post new topics in this forum
You cannot reply to topics in this forum
You cannot edit your posts in this forum
You cannot delete your posts in this forum
You cannot vote in polls in this forum
You cannot attach files in this forum
You cannot download files in this forum