Убийцы на замену / The Replacement Killers (Антуан Фукуа / Antoine Fuqua) [1998, США, боевик, BDRemux 1080p] [Расширенная версия] Dub (Видеосервис) + MVO (R5) + AVO (Гаврилов) + AVO (Живов) + AVO (Визгунов) + VO Гаевский + Sub Rus, Eng + Original Eng

Reply to topic
 
Author
Message

Faust ®

Gender: Unknown

Longevity: 9 years 9 months

Posts: 15495

Reputation: 0 [+] [-]

Faust · Post 22-Feb-2017 22:20

[Quote] 

Убийцы на замену / The Replacement Killers / Расширенная версия / Extended Cut
Страна: США
Жанр: боевик
Год выпуска: 1998
Продолжительность: 01:36:07
-
Перевод 1: Профессиональный (дублированный) Видеосервис
Перевод 2: Профессиональный (многоголосый закадровый) R5 со вставками VO (Евгения Гаевского)
Перевод 3: Авторский (одноголосый закадровый) Андрей Гаврилов
Перевод 4: Авторский (одноголосый закадровый) Юрий Живов со вставками AVO (Андрея Гаврилова)
Перевод 5: Авторский (одноголосый закадровый) Сергей Визгунов со вставками AVO (Андрея Гаврилова)
Перевод 6: Одноголосый закадровый Евгений Гаевский по переводу Артёма Завгороднего (zav25) Работа со звуком DREADG.
Cубтитры: русские (форсированные для дубляжа) и полные русские и английские
Оригинальная аудиодорожка: английский
-
Режиссер: Антуан Фукуа / Antoine Fuqua
В ролях: Чоу Юнь-Фат, Мира Сорвино, Майкл Рукер, Кеннет Цан, Юрген Прохнов, Тиль Швайгер, Дэнни Трехо, Клифтон Коллинз мл., Карлос Гомес, Фрэнк Медрано
-
Описание: Профессиональный киллер Джон Ли получает новое задание — убить полицейского. Но в решающий момент он не смог нажать на курок: под прицелом оказался ребенок. А мафия не прощает ошибок...
-
в 6-м переводе.
-
Сэмпл: http://sendfile.su/1310356
-
Тип релиза: BDRemux 1080p
Контейнер: MKV
Видео: MPEG-4 AVC, 1920x1080p (16:9), 23.976 fps, 26000 kbps
Аудио 1: русский / AC3 / 5.1 / 48 kHz / 384 kbps / 16 bit || DUB
Аудио 2: русский / AC3 / 5.1 / 48 kHz / 448 kbps / 16 bit || MVO
Аудио 3: русский / AC3 / 5.1 / 48 kHz / 384 kbps / 16 bit || Гаврилов
Аудио 4: русский / AC3 / 5.1 / 48 kHz / 448 kbps / 16 bit || Живов
Аудио 5: русский / AC3 / 2.0 / 48 kHz / 192 kbps / 16 bit || Визгунов
Аудио 6: русский / DTS-HD MA / 5.1 / 48 kHz / 2402 kbps / 16 bit || (DTS Core: 5.1, 48 kHz, 1509 kbps, 16-bit) || Гаевский
Аудио 7: английский / LPCM / 5.1 / 48 kHz / 4608 kbps / 16 bit || ENG
Формат субтитров: softsub (SRT)
Главы: есть (подписаны)

MediaInfo

General
Unique ID : 229868880312651244087487707670993518259 (0xACEF22D016D975B7838B9E2832493EB3)
Complete name : C:\Users\ALEX\Desktop\Фильмы\HD\The Replacement Killers.Extended Cut.1998.BDRemux.1080p.6xRus.Eng.Subs.Chpt.mkv
Format : Matroska
Format version : Version 4 / Version 2
File size : 23.4 GiB
Duration : 1 h 36 min
Overall bit rate mode : Variable
Overall bit rate : 34.9 Mb/s
Movie name : The Replacement Killers.Extended Cut.BDRemux
Encoded date : UTC 2017-02-18 11:41:53
Writing application : mkvmerge v8.5.2 ('Crosses') 64bit
Writing library : libebml v1.3.3 + libmatroska v1.4.4
Video
ID : 1
Format : AVC
Format/Info : Advanced Video Codec
Format profile : High@L4.1
Format settings, CABAC : Yes
Format settings, ReFrames : 2 frames
Codec ID : V_MPEG4/ISO/AVC
Duration : 1 h 36 min
Bit rate mode : Variable
Bit rate : 26.0 Mb/s
Width : 1 920 pixels
Height : 1 080 pixels
Display aspect ratio : 16:9
Frame rate mode : Constant
Frame rate : 23.976 (24000/1001) FPS
Color space : YUV
Chroma subsampling : 4:2:0
Bit depth : 8 bits
Scan type : Progressive
Bits/(Pixel*Frame) : 0.523
Stream size : 17.5 GiB (75%)
Title : The Replacement Killers.Extended Cut.BDRemux
Language : English
Default : Yes
Forced : No
Audio #1
ID : 2
Format : AC-3
Format/Info : Audio Coding 3
Mode extension : CM (complete main)
Format settings, Endianness : Big
Codec ID : A_AC3
Duration : 1 h 36 min
Bit rate mode : Constant
Bit rate : 384 kb/s
Channel(s) : 6 channels
Channel positions : Front: L C R, Side: L R, LFE
Sampling rate : 48.0 kHz
Frame rate : 31.250 FPS (1536 spf)
Compression mode : Lossy
Stream size : 264 MiB (1%)
Title : DUB (Видеосервис)
Language : Russian
Default : Yes
Forced : No
Audio #2
ID : 3
Format : AC-3
Format/Info : Audio Coding 3
Mode extension : CM (complete main)
Format settings, Endianness : Big
Codec ID : A_AC3
Duration : 1 h 36 min
Bit rate mode : Constant
Bit rate : 448 kb/s
Channel(s) : 6 channels
Channel positions : Front: L C R, Side: L R, LFE
Sampling rate : 48.0 kHz
Frame rate : 31.250 FPS (1536 spf)
Compression mode : Lossy
Stream size : 308 MiB (1%)
Title : MVO (R5) со вставками VO (Евгения Гаевского)
Language : Russian
Default : No
Forced : No
Audio #3
ID : 4
Format : AC-3
Format/Info : Audio Coding 3
Mode extension : CM (complete main)
Format settings, Endianness : Big
Codec ID : A_AC3
Duration : 1 h 36 min
Bit rate mode : Constant
Bit rate : 384 kb/s
Channel(s) : 6 channels
Channel positions : Front: L C R, Side: L R, LFE
Sampling rate : 48.0 kHz
Frame rate : 31.250 FPS (1536 spf)
Compression mode : Lossy
Stream size : 264 MiB (1%)
Title : AVO (Андрей Гаврилов)
Language : Russian
Default : No
Forced : No
Audio #4
ID : 5
Format : AC-3
Format/Info : Audio Coding 3
Mode extension : CM (complete main)
Format settings, Endianness : Big
Codec ID : A_AC3
Duration : 1 h 36 min
Bit rate mode : Constant
Bit rate : 448 kb/s
Channel(s) : 6 channels
Channel positions : Front: L C R, Side: L R, LFE
Sampling rate : 48.0 kHz
Frame rate : 31.250 FPS (1536 spf)
Compression mode : Lossy
Stream size : 308 MiB (1%)
Title : AVO (Юрий Живов) со вставками AVO (Андрея Гаврилова)
Language : Russian
Default : No
Forced : No
Audio #5
ID : 6
Format : AC-3
Format/Info : Audio Coding 3
Mode extension : CM (complete main)
Format settings, Endianness : Big
Codec ID : A_AC3
Duration : 1 h 36 min
Bit rate mode : Constant
Bit rate : 192 kb/s
Channel(s) : 2 channels
Channel positions : Front: L R
Sampling rate : 48.0 kHz
Frame rate : 31.250 FPS (1536 spf)
Compression mode : Lossy
Stream size : 132 MiB (1%)
Title : AVO (Сергей Визгунов) со вставками AVO (Андрея Гаврилова)
Language : Russian
Default : No
Forced : No
Audio #6
ID : 7
Format : DTS
Format/Info : Digital Theater Systems
Format profile : MA / Core
Mode : 16
Format settings, Endianness : Big
Codec ID : A_DTS
Duration : 1 h 36 min
Bit rate mode : Variable / Constant
Bit rate : 2 402 kb/s / 1 509 kb/s
Channel(s) : 6 channels
Channel positions : Front: L C R, Side: L R, LFE
Sampling rate : 48.0 kHz
Frame rate : 93.750 FPS (512 spf)
Bit depth : 16 bits
Compression mode : Lossless / Lossy
Stream size : 1.61 GiB (7%)
Title : VO (Евгений Гаевский) по переводу Артёма Завгороднего (zav25)
Language : Russian
Default : No
Forced : No
Audio #7
ID : 8
Format : PCM
Codec ID : A_PCM/INT/LIT
Duration : 1 h 36 min
Bit rate mode : Constant
Bit rate : 4 608 kb/s
Channel(s) : 6 channels
Sampling rate : 48.0 kHz
Frame rate : 32.000 FPS (1500 spf)
Bit depth : 16 bits
Stream size : 3.09 GiB (13%)
Title : Original
Language : English
Default : No
Forced : No
Text #1
ID : 9
Format : UTF-8
Codec ID : S_TEXT/UTF8
Codec ID/Info : UTF-8 Plain Text
Duration : 1 h 22 min
Bit rate : 13 b/s
Count of elements : 138
Stream size : 7.93 KiB (0%)
Title : Forced for DUB
Language : Russian
Default : Yes
Forced : No
Text #2
ID : 10
Format : UTF-8
Codec ID : S_TEXT/UTF8
Codec ID/Info : UTF-8 Plain Text
Duration : 1 h 31 min
Bit rate : 39 b/s
Count of elements : 448
Stream size : 26.7 KiB (0%)
Title : Full
Language : Russian
Default : No
Forced : No
Text #3
ID : 11
Format : UTF-8
Codec ID : S_TEXT/UTF8
Codec ID/Info : UTF-8 Plain Text
Duration : 1 h 28 min
Bit rate : 24 b/s
Count of elements : 562
Stream size : 16.0 KiB (0%)
Title : Full
Language : English
Default : No
Forced : No
Menu
00:00:00.000 : en:1. Start
00:03:03.549 : en:2. A Bloody Bust
00:07:18.312 : en:3. Unwelcome Respects
00:09:12.654 : en:4. One Final Assignment
00:12:33.255 : en:5. A Small Dilemma
00:14:50.666 : en:6. "I Went Against Mr. Wei"
00:17:13.093 : en:7. The Woman to See
00:20:06.612 : en:8. Forging a Partnership
00:27:10.882 : en:9. In Over Her Head
00:31:05.585 : en:10. Walking Bull's-Eyes
00:36:17.519 : en:11. Car Wash Chaos
00:44:57.075 : en:12. The Replacements
00:46:52.420 : en:13. Setting Things Straight
00:51:36.270 : en:14. Running Out of Time
00:52:52.498 : en:15. The General's Son
00:54:51.855 : en:16. Arcade Assassins
01:01:13.999 : en:17. Execrable Eavesdroppers
01:02:23.207 : en:18. Gift From a Dying Man
01:05:24.750 : en:19. Can't Stand Aside
01:09:17.447 : en:20. Friends in Low Places
01:12:45.069 : en:21. The Time and the Place
01:14:33.393 : en:22. Feature Firefight
01:16:58.828 : en:23. Daddy's Not Happy
01:18:31.105 : en:24. A Shared Problem
01:20:31.465 : en:25. Alleyway Assault
01:24:59.267 : en:26. Positions Reversed
01:27:30.720 : en:27. Face to Face
01:30:50.318 : en:28. A Going-Away Present
01:32:50.915 : en:29. End Credits
01:36:07.000 : en:30. End

Скриншоты

[Profile]  [PM] 
Display posts:    
Reply to topic

Current time is: 23-Jun 07:14

All times are UTC + 2



You cannot post new topics in this forum
You cannot reply to topics in this forum
You cannot edit your posts in this forum
You cannot delete your posts in this forum
You cannot vote in polls in this forum
You cannot attach files in this forum
You cannot download files in this forum