Перед рассветом / Before Sunrise (Ричард Линклейтер / Richard Linklater) [1995, США, Швейцария, Австрия, мелодрама, драма, BDRemux 1080p] [Criterion Collection] MVO (НТВ+) + DVO + AVO (П. Карцев) + Sub Rus, Eng + Original Eng

Reply to topic
 
Author
Message

Faust ®

Gender: Unknown

Longevity: 9 years 2 months

Posts: 14058

Reputation: 0 [+] [-]

Faust · Post 23-Feb-2017 10:35

[Quote] 

Перед рассветом / Before Sunrise
Страна: США, Швейцария, Австрия
Студия: Castle Rock Entertainment, Detour Filmproduction, Filmhaus Wien Universa Filmproduktions
Жанр: мелодрама, драма
Год выпуска: 1995
Продолжительность: 01:41:05
Перевод 1: Профессиональный (многоголосый закадровый) НТВ+
Перевод 2: Профессиональный (двухголосый закадровый)
Перевод 3: Авторский (одноголосый закадровый) П. Карцев
Cубтитры: русские, английские (SDH)
Оригинальная аудиодорожка: английский
Режиссер: Ричард Линклейтер / Richard Linklater
В ролях: Итан Хоук (Jesse), Жюли Дельпи (Céline), Андреа Экерт (Wife on Train), Ханно Пёшль (Husband on Train), Карл Брукшвайгер (Guy on Bridge), Текс Рубиновиц (Guy on Bridge), Эрни Мангольд (Palm Reader), Доминик Кастелль (Street Poet), Хаймон Мария Буттингер (Bartender), Харольд Вайглайн (Guitarist in Club), Бильге Ешим (Belly Dancer), Курти (Percussionist)
Описание: Молодой американец Джесси знакомится в поезде с красивой француженкой Селин. Они сразу находят много общих тем для разговоров, и Джесси уговаривает Селин сойти вместе с ним в Вене, чтобы провести вместе вечер и ночь, так как наутро он должен улететь домой в Штаты.
II Сэмпл II IMDB II
Тип релиза: BDRemux 1080p (Before.Sunrise.1995.Criterion.Collection.1080p.BluRay.REMUX.AVC.FLAC.2.0-EPSiLON)
Контейнер: MKV
Видео: AVC / 1920x1080 / 16:9 / 23.976fps / 35300Kbps / High@L4.1
Аудио 1: AC3 / 48.0 KHz / 2ch. / 192kbps / Rus / MVO / НТВ+
Аудио 2: AC3 / 48.0 KHz / 2ch. / 192kbps / Rus / DVO
Аудио 3: AC3 / 48.0 KHz / 2ch. / 192kbps / Rus / AVO / П. Карцев
Аудио 4: FLAC / 48.0 KHz / 2ch. / 1387kbps / 24bit / Eng
Формат субтитров: softsub (SRT)

MediaInfo

Общее
Уникальный идентификатор : 255097858613787336175562358979356097209 (0xBFEA0F7AA7FE4188859E4238BB217AB9)
Полное имя : G:\!!!_torrent\Before.Sunrise.1995.BDRemux.1080p_by_vedigo.mkv
Формат : Matroska
Версия формата : Version 4 / Version 2
Размер файла : 26,3 Гбайт
Продолжительность : 1 ч. 41 м.
Режим общего битрейта : Переменный
Общий поток : 37,3 Мбит/сек
Название фильма : Before.Sunrise.1995.BDRemux.1080p_by_vedigo
Дата кодирования : UTC 2017-02-22 02:37:01
Программа кодирования : mkvmerge v9.9.0 ('Pick Up') 64bit
Библиотека кодирования : libebml v1.3.4 + libmatroska v1.4.5
Видео
Идентификатор : 1
Формат : AVC
Формат/Информация : Advanced Video Codec
Профиль формата : High@L4.1
Параметр CABAC формата : Да
Параметр ReFrames формата : 4 кадра
Идентификатор кодека : V_MPEG4/ISO/AVC
Продолжительность : 1 ч. 41 м.
Вид битрейта : Переменный
Битрейт : 35,3 Мбит/сек
Максимальный битрейт : 37,0 Мбит/сек
Ширина : 1920 пикселей
Высота : 1080 пикселей
Соотношение сторон : 16:9
Режим частоты кадров : Постоянный
Частота кадров : 23,976 (24000/1001) кадра/сек
Цветовое пространство : YUV
Субдискретизация насыщенности : 4:2:0
Битовая глубина : 8 бит
Тип развёртки : Прогрессивная
Бит/(Пиксели*Кадры) : 0.711
Размер потока : 25,0 Гбайт (95%)
Заголовок : Before.Sunrise.1995.BDRemux.1080p_by_vedigo
Default : Да
Forced : Нет
Аудио #1
Идентификатор : 2
Формат : AC-3
Формат/Информация : Audio Coding 3
Расширение режима : CM (complete main)
Параметр Endianness формата : Big
Идентификатор кодека : A_AC3
Продолжительность : 1 ч. 41 м.
Вид битрейта : Постоянный
Битрейт : 192 Кбит/сек
Каналы : 2 канала
Расположение каналов : Front: L R
Частота : 48,0 КГц
Частота кадров : 31,250 кадров/сек (1536 spf)
Битовая глубина : 16 бит
Метод сжатия : С потерями
Размер потока : 139 Мбайт (1%)
Заголовок : MVO @ НТВ+
Язык : Russian
Default : Да
Forced : Нет
Аудио #2
Идентификатор : 3
Формат : AC-3
Формат/Информация : Audio Coding 3
Расширение режима : CM (complete main)
Параметр Endianness формата : Big
Идентификатор кодека : A_AC3
Продолжительность : 1 ч. 41 м.
Вид битрейта : Постоянный
Битрейт : 192 Кбит/сек
Каналы : 2 канала
Расположение каналов : Front: L R
Частота : 48,0 КГц
Частота кадров : 31,250 кадров/сек (1536 spf)
Битовая глубина : 16 бит
Метод сжатия : С потерями
Размер потока : 139 Мбайт (1%)
Заголовок : DVO
Язык : Russian
Default : Нет
Forced : Нет
Аудио #3
Идентификатор : 4
Формат : AC-3
Формат/Информация : Audio Coding 3
Расширение режима : CM (complete main)
Параметр Endianness формата : Big
Идентификатор кодека : A_AC3
Продолжительность : 1 ч. 41 м.
Вид битрейта : Постоянный
Битрейт : 192 Кбит/сек
Каналы : 2 канала
Расположение каналов : Front: L R
Частота : 48,0 КГц
Частота кадров : 31,250 кадров/сек (1536 spf)
Битовая глубина : 16 бит
Метод сжатия : С потерями
Размер потока : 139 Мбайт (1%)
Заголовок : AVO @ П. Карцев
Язык : Russian
Default : Нет
Forced : Нет
Аудио #4
Идентификатор : 5
Формат : FLAC
Формат/Информация : Free Lossless Audio Codec
Идентификатор кодека : A_FLAC
Продолжительность : 1 ч. 41 м.
Вид битрейта : Переменный
Битрейт : 1387 Кбит/сек
Каналы : 2 канала
Расположение каналов : Front: L R
Частота : 48,0 КГц
Частота кадров : 11,719 кадров/сек (4096 spf)
Битовая глубина : 24 бит
Размер потока : 1003 Мбайт (4%)
Заголовок : Original
Библиотека кодирования : libFLAC 1.2.1 (UTC 2007-09-17)
Язык : English
Default : Нет
Forced : Нет
Текст #1
Идентификатор : 6
Формат : UTF-8
Идентификатор кодека : S_TEXT/UTF8
Идентификатор кодека/Информация : UTF-8 Plain Text
Продолжительность : 1 ч. 31 м.
Битрейт : 128 бит/сек
Count of elements : 1270
Размер потока : 85,6 Кбайт (0%)
Заголовок : Subtitle rus
Язык : Russian
Default : Нет
Forced : Нет
Текст #2
Идентификатор : 7
Формат : UTF-8
Идентификатор кодека : S_TEXT/UTF8
Идентификатор кодека/Информация : UTF-8 Plain Text
Продолжительность : 1 ч. 38 м.
Битрейт : 84 бит/сек
Count of elements : 1504
Размер потока : 60,7 Кбайт (0%)
Заголовок : Subtitle eng
Язык : English
Default : Нет
Forced : Нет
Меню
00:00:00.000 : en:Train to Vienna
00:14:14.520 : en:"Love is a complex issue"
00:28:19.948 : en:The awkwardness of life
00:36:15.215 : en:"A delusion angel"
00:46:02.218 : en:"This little space in between"
01:14:01.103 : en:"Our one and only night together"
01:27:33.999 : en:"You cannot conquer Time"

Скриншоты


[Profile]  [PM] 
Display posts:    
Reply to topic

Current time is: 28-Nov 09:52

All times are UTC + 2



You cannot post new topics in this forum
You cannot reply to topics in this forum
You cannot edit your posts in this forum
You cannot delete your posts in this forum
You cannot vote in polls in this forum
You cannot attach files in this forum
You cannot download files in this forum