Жизнь, или Что-то вроде того / Life or Something Like It (Стивен Херек / Stephen Herek) [2002, США, мелодрама, комедия, WEB-DL 720p] 4x MVO + DVO (Пётр Гланц и Евгения Лютая) + AVO (Евгений Рудой) + Ukr (DVO) + Sub Rus, Eng + Original Eng

Reply to topic
 
Author
Message

Faust ®

Gender: Unknown

Longevity: 9 years 2 months

Posts: 14058

Reputation: 0 [+] [-]

Faust · Post 23-Feb-2017 10:35

[Quote] 

Жизнь, или Что-то вроде того / Life or Something Like It
Страна: США
Студия: Regency Enterprises, Davis Entertainment, New Regency Pictures
Жанр: мелодрама, комедия
Год выпуска: 2002
Продолжительность: 01:43:36
Перевод 1: Профессиональный (многоголосый закадровый) LazerVideo
Перевод 2: Профессиональный (многоголосый закадровый) ТНТ
Перевод 3: Профессиональный (многоголосый закадровый)
Перевод 4: Профессиональный (многоголосый закадровый)
Перевод 5: Профессиональный (двухголосый закадровый) Пётр Гланц и Евгения Лютая
Перевод 6: Авторский (одноголосый закадровый) Евгений Рудой
Cубтитры: русские, английские
Оригинальная аудиодорожка: английский
Режиссер: Стивен Херек / Stephen Herek
В ролях: Анджелина Джоли, Эдвард Бёрнс, Тони Шэлуб, Кристиан Кэйн, Джеймс Гэммон, Мелисса Эррико, Стокард Ченнинг, Лиза Торнхилл, Грегори Итцин, Макс Бейкер
Описание: «Ты умрешь в следующий четверг». Конечно, на эту фразу бомжа-предсказателя можно было не обращать никакого внимания. Но он угадал, что утром будет град и с каким счетом закончится футбольный матч. А это значит, что через неделю ты умрешь... наверное.
Репортеру Лэнни не повезло - именно ей была адресована фраза загадочного бомжа. Она хочет долго жить, у нее есть жених, которого она, наверное, любит. Но если осталось жить всего семь дней, то все это, скорее всего, теперь неважно? Надо что-то сделать, ведь еще можно изменить свою судьбу. Или уже нельзя?- -Сэмпл: https://yadi.sk/i/sQfU-gMO3EMWdr
Тип релиза: WEB-DL 720p
Контейнер: MKV
Видео: h.264, 1280x544, 23.976 fps, 3891 kbps
Аудио #1: Russian: AC3 2.0, 48 kHz, 192 kbps avg |Многоголосый закадровый, LazerVideo|
Аудио #2: Russian: AC3 2.0, 48 kHz, 192 kbps avg |Многоголосый закадровый, ТНТ|
Аудио #3: Russian: AC3 5.1, 48 kHz, 448 kbps avg |Многоголосый закадровый|
Аудио #4: Russian: AC3 5.1, 48 kHz, 448 kbps avg |Многоголосый закадровый|
Аудио #5: Russian: AC3 5.1, 48 kHz, 448 kbps avg |Двухголосый закадровый, Пётр Гланц и Евгения Лютая|
Аудио #6: Russian: AC3 5.1, 48 kHz, 448 kbps avg |Одноголосый закадровый, Евгений Рудой|
Аудио #7: Ukrainian: AC3 2.0, 48 kHz, 192 kbps avg |Двухголосый закадровый, ТЕТ|
Аудио #8: English: AC3 5.1, 48 kHz, 384 kbps avg |Оригинал|
Аудио #9: English: AC3 2.0, 48 kHz, 192 kbps avg |комментарии режиссёра Стивена Херека|
Формат субтитров: softsub (SRT)

MediaInfo

Полное имя : F:\LF_R_SMTHNG_LK_T_2002_720p_WEB-DL -BLUEBIRD.mkv
Формат : Matroska
Версия формата : Version 2
Размер файла : 5,05 Гбайт
Продолжительность : 1 ч. 43 м.
Общий поток : 6973 Кбит/сек
Название фильма : LF_R_SMTHNG_LK_T_2002_720p_WEB-DL -BLUEBIRD
Дата кодирования : UTC 2017-01-01 22:09:06
Программа кодирования : mkvmerge v5.5.0 ('Healer') built on Apr 6 2012 21:43:24
Библиотека кодирования : libebml v1.2.3 + libmatroska v1.3.0
Видео
Идентификатор : 1
Формат : AVC
Формат/Информация : Advanced Video Codec
Профиль формата : Main@L3.1
Параметр CABAC формата : Нет
Параметр ReFrames формата : 2 кадра
Идентификатор кодека : V_MPEG4/ISO/AVC
Продолжительность : 1 ч. 43 м.
Битрейт : 3891 Кбит/сек
Ширина : 1280 пикселей
Высота : 544 пикселя
Соотношение сторон : 2,35:1
Режим частоты кадров : Постоянный
Частота кадров : 23,976 кадра/сек
Цветовое пространство : YUV
Субдискретизация насыщенности : 4:2:0
Битовая глубина : 8 бит
Тип развёртки : Прогрессивная
Бит/(Пиксели*Кадры) : 0.233
Размер потока : 2,82 Гбайт (56%)
Язык : English
Default : Да
Forced : Нет
Цветовой диапазон : Limited
Основные цвета : BT.709
Характеристики трансфера : BT.709
Коэффициенты матрицы : BT.709
Statistics Tags Issue : mkvmerge v8.5.1 ('Where you lead I will follow') 64bit 2017-01-01 21:27:29 / mkvmerge v5.5.0 ('Healer') built on Apr 6 2012 21:43:24 2017-01-01 22:09:06
FromStats_BitRate : 4026248
FromStats_Duration : 01:43:36.050000000
FromStats_FrameCount : 149036
FromStats_StreamSize : 3128419949
Аудио #1
Идентификатор : 2
Формат : AC-3
Формат/Информация : Audio Coding 3
Расширение режима : CM (complete main)
Параметр Endianness формата : Big
Идентификатор кодека : A_AC3
Продолжительность : 1 ч. 43 м.
Вид битрейта : Постоянный
Битрейт : 192 Кбит/сек
Каналы : 2 канала
Расположение каналов : Front: L R
Частота : 48,0 КГц
Частота кадров : 31,250 кадров/сек (1536 spf)
Битовая глубина : 16 бит
Метод сжатия : С потерями
Размер потока : 142 Мбайт (3%)
Заголовок : Многоголосый LazerVideo
Язык : Russian
Default : Да
Forced : Нет
Statistics Tags Issue : mkvmerge v8.5.1 ('Where you lead I will follow') 64bit 2017-01-01 21:27:29 / mkvmerge v5.5.0 ('Healer') built on Apr 6 2012 21:43:24 2017-01-01 22:09:06
FromStats_BitRate : 192000
FromStats_Duration : 01:43:37.152000000
FromStats_FrameCount : 194286
FromStats_StreamSize : 149211648
Аудио #2
Идентификатор : 3
Формат : AC-3
Формат/Информация : Audio Coding 3
Расширение режима : CM (complete main)
Параметр Endianness формата : Big
Идентификатор кодека : A_AC3
Продолжительность : 1 ч. 43 м.
Вид битрейта : Постоянный
Битрейт : 192 Кбит/сек
Каналы : 2 канала
Расположение каналов : Front: L R
Частота : 48,0 КГц
Частота кадров : 31,250 кадров/сек (1536 spf)
Битовая глубина : 16 бит
Метод сжатия : С потерями
Размер потока : 142 Мбайт (3%)
Заголовок : Многоголосый ТНТ
Язык : Russian
Default : Нет
Forced : Нет
Statistics Tags Issue : mkvmerge v8.5.1 ('Where you lead I will follow') 64bit 2017-01-01 21:27:29 / mkvmerge v5.5.0 ('Healer') built on Apr 6 2012 21:43:24 2017-01-01 22:09:06
FromStats_BitRate : 192000
FromStats_Duration : 01:43:37.152000000
FromStats_FrameCount : 194286
FromStats_StreamSize : 149211648
Аудио #3
Идентификатор : 4
Формат : AC-3
Формат/Информация : Audio Coding 3
Расширение режима : CM (complete main)
Параметр Endianness формата : Big
Идентификатор кодека : A_AC3
Продолжительность : 1 ч. 43 м.
Вид битрейта : Постоянный
Битрейт : 448 Кбит/сек
Каналы : 6 каналов
Расположение каналов : Front: L C R, Side: L R, LFE
Частота : 48,0 КГц
Частота кадров : 31,250 кадров/сек (1536 spf)
Битовая глубина : 16 бит
Метод сжатия : С потерями
Размер потока : 332 Мбайт (6%)
Заголовок : Многоголосый
Язык : Russian
Default : Нет
Forced : Нет
Statistics Tags Issue : mkvmerge v8.5.1 ('Where you lead I will follow') 64bit 2017-01-01 21:27:29 / mkvmerge v5.5.0 ('Healer') built on Apr 6 2012 21:43:24 2017-01-01 22:09:06
FromStats_BitRate : 448000
FromStats_Duration : 01:43:37.216000000
FromStats_FrameCount : 194288
FromStats_StreamSize : 348164096
Аудио #4
Идентификатор : 5
Формат : AC-3
Формат/Информация : Audio Coding 3
Расширение режима : CM (complete main)
Параметр Endianness формата : Big
Идентификатор кодека : A_AC3
Продолжительность : 1 ч. 43 м.
Вид битрейта : Постоянный
Битрейт : 448 Кбит/сек
Каналы : 6 каналов
Расположение каналов : Front: L C R, Side: L R, LFE
Частота : 48,0 КГц
Частота кадров : 31,250 кадров/сек (1536 spf)
Битовая глубина : 16 бит
Метод сжатия : С потерями
Размер потока : 332 Мбайт (6%)
Заголовок : Многоголосый
Язык : Russian
Default : Нет
Forced : Нет
Statistics Tags Issue : mkvmerge v8.5.1 ('Where you lead I will follow') 64bit 2017-01-01 21:27:29 / mkvmerge v5.5.0 ('Healer') built on Apr 6 2012 21:43:24 2017-01-01 22:09:06
FromStats_BitRate : 448000
FromStats_Duration : 01:43:36.064000000
FromStats_FrameCount : 194252
FromStats_StreamSize : 348099584
Аудио #5
Идентификатор : 6
Формат : AC-3
Формат/Информация : Audio Coding 3
Расширение режима : CM (complete main)
Параметр Endianness формата : Big
Идентификатор кодека : A_AC3
Продолжительность : 1 ч. 43 м.
Вид битрейта : Постоянный
Битрейт : 448 Кбит/сек
Каналы : 6 каналов
Расположение каналов : Front: L C R, Side: L R, LFE
Частота : 48,0 КГц
Частота кадров : 31,250 кадров/сек (1536 spf)
Битовая глубина : 16 бит
Метод сжатия : С потерями
Размер потока : 332 Мбайт (6%)
Заголовок : Петр Гланц и Евгения Лютая
Язык : Russian
Default : Нет
Forced : Нет
Statistics Tags Issue : mkvmerge v8.5.1 ('Where you lead I will follow') 64bit 2017-01-01 21:27:29 / mkvmerge v5.5.0 ('Healer') built on Apr 6 2012 21:43:24 2017-01-01 22:09:06
FromStats_BitRate : 448000
FromStats_Duration : 01:43:36.064000000
FromStats_FrameCount : 194252
FromStats_StreamSize : 348099584
Аудио #6
Идентификатор : 7
Формат : AC-3
Формат/Информация : Audio Coding 3
Расширение режима : CM (complete main)
Параметр Endianness формата : Big
Идентификатор кодека : A_AC3
Продолжительность : 1 ч. 43 м.
Вид битрейта : Постоянный
Битрейт : 448 Кбит/сек
Каналы : 6 каналов
Расположение каналов : Front: L C R, Side: L R, LFE
Частота : 48,0 КГц
Частота кадров : 31,250 кадров/сек (1536 spf)
Битовая глубина : 16 бит
Метод сжатия : С потерями
Размер потока : 332 Мбайт (6%)
Заголовок : Авторский Евгений Рудой
Язык : Russian
Default : Нет
Forced : Нет
Statistics Tags Issue : mkvmerge v8.5.1 ('Where you lead I will follow') 64bit 2017-01-01 21:27:29 / mkvmerge v5.5.0 ('Healer') built on Apr 6 2012 21:43:24 2017-01-01 22:09:06
FromStats_BitRate : 448000
FromStats_Duration : 01:43:36.064000000
FromStats_FrameCount : 194252
FromStats_StreamSize : 348099584
Аудио #7
Идентификатор : 8
Формат : AC-3
Формат/Информация : Audio Coding 3
Расширение режима : CM (complete main)
Параметр Endianness формата : Big
Идентификатор кодека : A_AC3
Продолжительность : 1 ч. 43 м.
Вид битрейта : Постоянный
Битрейт : 192 Кбит/сек
Каналы : 2 канала
Расположение каналов : Front: L R
Частота : 48,0 КГц
Частота кадров : 31,250 кадров/сек (1536 spf)
Битовая глубина : 16 бит
Метод сжатия : С потерями
Размер потока : 142 Мбайт (3%)
Заголовок : Двоголосий закадровий ТЕТ
Язык : Ukrainian
Default : Нет
Forced : Нет
Statistics Tags Issue : mkvmerge v8.5.1 ('Where you lead I will follow') 64bit 2017-01-01 21:27:29 / mkvmerge v5.5.0 ('Healer') built on Apr 6 2012 21:43:24 2017-01-01 22:09:06
FromStats_BitRate : 192000
FromStats_Duration : 01:43:36.544000000
FromStats_FrameCount : 194267
FromStats_StreamSize : 149197056
Аудио #8
Идентификатор : 9
Формат : AC-3
Формат/Информация : Audio Coding 3
Расширение режима : CM (complete main)
Параметр Endianness формата : Big
Идентификатор кодека : A_AC3
Продолжительность : 1 ч. 43 м.
Вид битрейта : Постоянный
Битрейт : 384 Кбит/сек
Каналы : 6 каналов
Расположение каналов : Front: L C R, Side: L R, LFE
Частота : 48,0 КГц
Частота кадров : 31,250 кадров/сек (1536 spf)
Битовая глубина : 16 бит
Метод сжатия : С потерями
Размер потока : 285 Мбайт (6%)
Заголовок : Оригинал
Язык : English
Default : Нет
Forced : Нет
Statistics Tags Issue : mkvmerge v8.5.1 ('Where you lead I will follow') 64bit 2017-01-01 21:27:29 / mkvmerge v5.5.0 ('Healer') built on Apr 6 2012 21:43:24 2017-01-01 22:09:06
FromStats_BitRate : 384000
FromStats_Duration : 01:43:36.064000000
FromStats_FrameCount : 194252
FromStats_StreamSize : 298371072
Аудио #9
Идентификатор : 10
Формат : AC-3
Формат/Информация : Audio Coding 3
Расширение режима : CM (complete main)
Параметр Endianness формата : Big
Идентификатор кодека : A_AC3
Продолжительность : 1 ч. 43 м.
Вид битрейта : Постоянный
Битрейт : 192 Кбит/сек
Каналы : 2 канала
Расположение каналов : Front: L R
Частота : 48,0 КГц
Частота кадров : 31,250 кадров/сек (1536 spf)
Битовая глубина : 16 бит
Метод сжатия : С потерями
Размер потока : 142 Мбайт (3%)
Заголовок : Комментарии режиссёра Стивена Херека
Язык : English
Default : Нет
Forced : Нет
Statistics Tags Issue : mkvmerge v8.5.1 ('Where you lead I will follow') 64bit 2017-01-01 21:27:29 / mkvmerge v5.5.0 ('Healer') built on Apr 6 2012 21:43:24 2017-01-01 22:09:06
FromStats_BitRate : 192000
FromStats_Duration : 01:43:36.576000000
FromStats_FrameCount : 194268
FromStats_StreamSize : 149197824
Текст #1
Идентификатор : 11
Формат : UTF-8
Идентификатор кодека : S_TEXT/UTF8
Идентификатор кодека/Информация : UTF-8 Plain Text
Язык : Russian
Default : Нет
Forced : Нет
Statistics Tags Issue : mkvmerge v8.5.1 ('Where you lead I will follow') 64bit 2017-01-01 21:27:29 / mkvmerge v5.5.0 ('Healer') built on Apr 6 2012 21:43:24 2017-01-01 22:09:06
FromStats_BitRate : 89
FromStats_Duration : 01:37:34.897000000
FromStats_FrameCount : 1100
FromStats_StreamSize : 65496
Текст #2
Идентификатор : 12
Формат : UTF-8
Идентификатор кодека : S_TEXT/UTF8
Идентификатор кодека/Информация : UTF-8 Plain Text
Язык : English
Default : Да
Forced : Нет
Statistics Tags Issue : mkvmerge v8.5.1 ('Where you lead I will follow') 64bit 2017-01-01 21:27:29 / mkvmerge v5.5.0 ('Healer') built on Apr 6 2012 21:43:24 2017-01-01 22:09:06
FromStats_BitRate : 71
FromStats_Duration : 01:40:14.058000000
FromStats_FrameCount : 2018
FromStats_StreamSize : 53893
Меню
00:00:00.000 : :Chapter 1
00:05:00.000 : :Chapter 2
00:10:00.000 : :Chapter 3
00:15:00.000 : :Chapter 4
00:20:00.000 : :Chapter 5
00:25:00.000 : :Chapter 6
00:30:00.000 : :Chapter 7
00:35:00.000 : :Chapter 8
00:40:00.000 : :Chapter 9
00:45:00.000 : :Chapter 10
00:50:00.000 : :Chapter 11
00:55:00.000 : :Chapter 12
01:00:00.000 : :Chapter 13
01:05:00.000 : :Chapter 14
01:10:00.000 : :Chapter 15
01:15:00.000 : :Chapter 16
01:20:00.000 : :Chapter 17
01:25:00.000 : :Chapter 18
01:30:00.000 : :Chapter 19
01:35:00.000 : :Chapter 20
01:40:00.000 : :Chapter 21

Скриншоты

[Profile]  [PM] 
Display posts:    
Reply to topic

Current time is: 28-Nov 09:51

All times are UTC + 2



You cannot post new topics in this forum
You cannot reply to topics in this forum
You cannot edit your posts in this forum
You cannot delete your posts in this forum
You cannot vote in polls in this forum
You cannot attach files in this forum
You cannot download files in this forum