Новая эра Z / The Girl with All the Gifts (Колм МакКарти / Colm McCarthy) [2016, США, Великобритания, ужасы, триллер, драма, BDRip 1080p] Dub + AVO (Дохалов) + Ukr + Original Eng + sub (Eng Full, Eng SDH)

Reply to topic
 
Author
Message

Faust ®

Gender: Unknown

Longevity: 9 years 2 months

Posts: 14058

Reputation: 0 [+] [-]

Faust · Post 23-Feb-2017 10:35

[Quote] 

Новая эра Z / The Girl with All the Gifts- Год выпуска: 2016
Выпущено: США, Великобритания
Жанр: ужасы, триллер, драма
Продолжительность: 01:50:55
Перевод: Профессиональный (полное дублирование)
+ Авторский одноголосый В.Дохалов
Оригинальная звуковая дорожка: English
Субтитры: English (Full, SDH)-Режиссер: Колм МакКарти / Colm McCarthy
В ролях: Джемма Артертон, Гленн Клоуз, Пэдди Консидайн, Доминик Типпер, Анамария Маринка, Сенниа Нануа, Лобна Фьютерс, Энтони Уэльс, Дэниэл Иган, Фисайо Акинаде
О фильме: Война миров не закончилась. Планету поразил страшный вирус. На людей стали нападать инфицированные особи, поставив человечество на грань исчезновения. Единственная надежда — второе поколение зараженных, опасных, но обладающих феноменальным, более высоким, чем у людей, интеллектом. Они — ключ к созданию спасительной вакцины. Поэтому их держат в специальном бункере, оберегая от контактов с внешним миром. Но однажды ситуация выходит из-под контроля.
SbR!
Релиз:
Тип релиза: BDRip 1080p
Контейнер: MKV
Видео: 1920x956 at 23.976 fps, x264@L4.1, ~ 14419 kbps avg
Аудио #01: Russian: 48 kHz/24-bit, DTS 5.1, ~1509.00 kbps avg |Дубляж|
Аудио #02: Russian: 48 kHz/16-bit, DTS 5.1, ~1509 kbps avg |Одноголосый закадровый|В.Дохалов|
Аудио #03: Ukrainian: 48 kHz/24-bit, DTS 5.1, ~1509.00 kbps avg |Многоголосый закадровый|
Аудио #04: English: 48 kHz/16-bit, DTS 5.1, ~1509.00 kbps avg
Семпл-

Source-->Encode






-

mInfo

Формат : Matroska
Версия формата : Version 4 / Version 2
Размер файла : 15,9 Гбайт
Продолжительность : 1 ч. 50 м.
Общий поток : 20,5 Мбит/сек
Дата кодирования : UTC 2017-02-20 06:26:06
Программа кодирования : mkvmerge v9.9.0 ('Pick Up') 64bit
Библиотека кодирования : libebml v1.3.4 + libmatroska v1.4.5
Attachements : cover.jpg
DURATION : 01:45:25.778000000
NUMBER_OF_FRAMES : 1082
NUMBER_OF_BYTES : 32894
_STATISTICS_WRITING_APP : mkvmerge v9.9.0 ('Pick Up') 64bit
_STATISTICS_WRITING_DATE_UTC : 2017-02-20 06:26:06
_STATISTICS_TAGS : BPS DURATION NUMBER_OF_FRAMES NUMBER_OF_BYTES
Видео
Идентификатор : 1
Формат : AVC
Формат/Информация : Advanced Video Codec
Профиль формата : High@L4.1
Параметр CABAC формата : Да
Параметр ReFrames формата : 4 кадра
Идентификатор кодека : V_MPEG4/ISO/AVC
Продолжительность : 1 ч. 50 м.
Битрейт : 14,0 Мбит/сек
Ширина : 1920 пикселей
Высота : 956 пикселей
Соотношение сторон : 2,008
Режим частоты кадров : Постоянный
Частота кадров : 23,976 кадра/сек
Цветовое пространство : YUV
Субдискретизация насыщенности : 4:2:0
Битовая глубина : 8 бит
Тип развёртки : Прогрессивная
Бит/(Пиксели*Кадры) : 0.319
Размер потока : 10,9 Гбайт (69%)
Библиотека кодирования : x264 core 148 r2762+56 6284cf3 t_mod_Custom [8-bit@all X86_64]
Настройки программы : cabac=1 / ref=4 / deblock=1:-3:-3 / analyse=0x3:0x133 / me=umh / subme=10 / psy=1 / fade_compensate=0.00 / psy_rd=1.00:0.05 / mixed_ref=1 / me_range=32 / chroma_me=1 / trellis=2 / 8x8dct=1 / cqm=0 / deadzone=21,11 / fast_pskip=0 / chroma_qp_offset=-3 / threads=6 / lookahead_threads=1 / sliced_threads=0 / nr=0 / decimate=1 / interlaced=0 / bluray_compat=0 / constrained_intra=0 / fgo=0 / bframes=8 / b_pyramid=2 / b_adapt=2 / b_bias=0 / direct=3 / weightb=1 / open_gop=0 / weightp=2 / keyint=250 / keyint_min=23 / scenecut=40 / intra_refresh=0 / rc_lookahead=60 / rc=crf / mbtree=0 / crf=17.5000 / qcomp=0.60 / qpmin=0:0:0 / qpmax=69:69:69 / qpstep=4 / vbv_maxrate=62500 / vbv_bufsize=78125 / crf_max=0.0 / nal_hrd=none / filler=0 / ip_ratio=1.40 / pb_ratio=1.30 / aq=1:0.65 / aq-sensitivity=10.00 / aq-factor=1.00:1.00:1.00 / aq2=1:0.60 / aq2-sensitivity=15.00 / aq2-factor=1.00:1.00:1.00 / aq3=1:[0.55:0.55]:[0.55:0.55]:[0.55:0.55]:[0.55:0.55] / aq3-sensitivity=10.00 / aq3-factor=[1.00:1.00]:[1.00:1.00]:[1.00:1.00] / aq3-boundary=192:64:24
Язык : English
Default : Да
Forced : Нет
Основные цвета : BT.709
Характеристики трансфера : BT.709
Коэффициенты матрицы : BT.709
colour_range : Limited
DURATION : 01:50:55.489000000
NUMBER_OF_FRAMES : 159572
NUMBER_OF_BYTES : 11995934835
_STATISTICS_WRITING_APP : mkvmerge v9.9.0 ('Pick Up') 64bit
_STATISTICS_WRITING_DATE_UTC : 2017-02-20 06:26:06
_STATISTICS_TAGS : BPS DURATION NUMBER_OF_FRAMES NUMBER_OF_BYTES
Аудио #1
Идентификатор : 2
Формат : DTS
Формат/Информация : Digital Theater Systems
Режим : 16
Параметр Endianness формата : Big
Идентификатор кодека : A_DTS
Продолжительность : 1 ч. 50 м.
Вид битрейта : Постоянный
Битрейт : 1509 Кбит/сек
Каналы : 6 каналов
Расположение каналов : Front: L C R, Side: L R, LFE
Частота : 48,0 КГц
Битовая глубина : 24 бит
Метод сжатия : С потерями
Размер потока : 1,17 Гбайт (7%)
Язык : Russian
Default : Да
Forced : Нет
Аудио #2
Идентификатор : 3
Формат : DTS
Формат/Информация : Digital Theater Systems
Режим : 16
Параметр Endianness формата : Big
Идентификатор кодека : A_DTS
Продолжительность : 1 ч. 50 м.
Вид битрейта : Постоянный
Битрейт : 1509 Кбит/сек
Каналы : 6 каналов
Расположение каналов : Front: L C R, Side: L R, LFE
Частота : 48,0 КГц
Битовая глубина : 16 бит
Метод сжатия : С потерями
Размер потока : 1,17 Гбайт (7%)
Заголовок : AVO Dohalov
Язык : Russian
Default : Нет
Forced : Нет
Аудио #3
Идентификатор : 4
Формат : DTS
Формат/Информация : Digital Theater Systems
Режим : 16
Параметр Endianness формата : Big
Идентификатор кодека : A_DTS
Продолжительность : 1 ч. 50 м.
Вид битрейта : Постоянный
Битрейт : 1509 Кбит/сек
Каналы : 6 каналов
Расположение каналов : Front: L C R, Side: L R, LFE
Частота : 48,0 КГц
Битовая глубина : 24 бит
Метод сжатия : С потерями
Размер потока : 1,17 Гбайт (7%)
Заголовок : Многоголосый закадровый
Язык : Ukrainian
Default : Нет
Forced : Нет
Аудио #4
Идентификатор : 5
Формат : DTS
Формат/Информация : Digital Theater Systems
Режим : 16
Параметр Endianness формата : Big
Идентификатор кодека : A_DTS
Продолжительность : 1 ч. 50 м.
Вид битрейта : Постоянный
Битрейт : 1509 Кбит/сек
Каналы : 6 каналов
Расположение каналов : Front: L C R, Side: L R, LFE
Частота : 48,0 КГц
Битовая глубина : 24 бит
Метод сжатия : С потерями
Размер потока : 1,17 Гбайт (7%)
Язык : English
Default : Нет
Forced : Нет
Текст #1
Идентификатор : 6
Формат : UTF-8
Идентификатор кодека : S_TEXT/UTF8
Идентификатор кодека/Информация : UTF-8 Plain Text
Язык : English
Default : Нет
Forced : Нет
Текст #2
Идентификатор : 7
Формат : UTF-8
Идентификатор кодека : S_TEXT/UTF8
Идентификатор кодека/Информация : UTF-8 Plain Text
Заголовок : SDH
Язык : English
Default : Нет
Forced : Нет
Меню
00:00:00.000 : en:00:00:00.000
00:09:22.312 : en:00:09:22.312
00:17:59.537 : en:00:17:59.537
00:31:09.826 : en:00:31:09.826
00:41:11.636 : en:00:41:11.636
00:48:34.453 : en:00:48:34.453
00:58:38.807 : en:00:58:38.807
01:07:45.561 : en:01:07:45.561
01:18:03.137 : en:01:18:03.137
01:25:42.679 : en:01:25:42.679
01:36:59.772 : en:01:36:59.772
01:45:52.930 : en:01:45:52.930

-
* Сохранены оригинальные главы как на Blu-ray.
* За синхронизацию русской дорожки спасибо Spiellberg.
* За украинскую дорожку спасибо Hurtom.
[Profile]  [PM] 
Display posts:    
Reply to topic

Current time is: 01-Dec 04:23

All times are UTC + 2



You cannot post new topics in this forum
You cannot reply to topics in this forum
You cannot edit your posts in this forum
You cannot delete your posts in this forum
You cannot vote in polls in this forum
You cannot attach files in this forum
You cannot download files in this forum