Госпожа горничная / Maid in Manhattan (Вейн Ванг / Wayne Wang) [2002, США, комедия, мелодрама, BDRip 1080p] Dub + Sub Rus, Eng + Original Eng

Reply to topic
 
Author
Message

Faust ®

Gender: Unknown

Longevity: 9 years 9 months

Posts: 15495

Reputation: 0 [+] [-]

Faust · Post 23-Feb-2017 14:40

[Quote] 

Госпожа горничная / Maid in Manhattan
Страна: США
Жанр: комедия, мелодрама
Год выпуска: 2002
Продолжительность: 01:45:17
Перевод: Профессиональный (дублированный)
Cубтитры: Russia, English(Full, SDH)
Оригинальная аудиодорожка: английский-Режиссер: Вейн Ванг / Wayne Wang-В ролях: Дженнифер Лопез, Ральф Файнс, Наташа Ричардсон, Стэнли Туччи, Тайлер Пози, Фрэнсис Сонрой, Крис Айгеман, Эми Седарис, Марисса Мэтроун, Присцилла Лопез, Боб Хоскинс, Лиза Робертс, Мэдди Кормэн, Шарон Уилкинс, Jayne Houdyshell, Мэрлин Торрес, Лу Фергюсон, Ди Квон, Лилиан Томас, Рэкуэл Шапиро-Описание: Дженнифер Лопез - Мариса Вентура, независимая мать - одиночка, которая живет в Бронксе с сыном Ти, и работает горничной в первоклассном Манхэттенском отеле. Она мечтает о лучшей жизни, но с ребенком достичь этого достаточно сложно.
Кристофер Хэлл, красивый, обаятельный наследник известной американской политической династии, приехал в Нью-Йорк на неделю для встречи с важными шишками из политического бомонда и останавливается в отеле, где работает Мариса. По стечению обстоятельств и странным поворотам судьбы они встречаются...-Релиз:
by delia-Качество видео: BDRip | Рип от SbR
Формат видео: MKV
Видео: 1920x800 at 23.976 fps, x264@L4.1 , ~ 16692 kbps avg
Аудио 1: Russian: 48 kHz, AC3, 3/2 (L,C,R,l,r) + LFE ch, ~640.00 kbps avg |Дубляж, CEE|
Аудио 2: Ukrainian: 48 kHz, AC3, 2/0 (L,R) ch, ~192.00 kbps avg |Двухголосый закадровый, VHS, 1+1|
Аудио 3: Ukrainian: 48 kHz, AC3, 2/0 (L,R) ch, ~192.00 kbps avg |Двухголосый закадровый|"Новий"|
Аудио 4: English: 48 kHz, AC3, 3/2 (L,C,R,l,r) + LFE ch, ~640.00 kbps avg-Сэмпл-
Сохранены оригинальные чаптеры как на Blu-Ray.
За украінськi доріжки №2-3 велика подяка hurtom

MediaInfo

Format                      : Matroska
Format version              : Version 4 / Version 2
File size                   : 13.5 GiB
Duration                    : 1 h 45 min
Overall bit rate            : 18.4 Mb/s
Encoded date                : UTC 2017-02-23 08:10:57
Writing application         : mkvmerge v9.9.0 ('Pick Up') 64bit
Writing library             : libebml v1.3.4 + libmatroska v1.4.5
Cover                       : Yes
Attachments                 : cover.jpg
Video
ID                          : 1
Format                      : AVC
Format/Info                 : Advanced Video Codec
Format profile              : High@L4.1
Format settings, CABAC      : Yes
Format settings, ReFrames   : 5 frames
Codec ID                    : V_MPEG4/ISO/AVC
Duration                    : 1 h 45 min
Bit rate                    : 16.7 Mb/s
Width                       : 1 920 pixels
Height                      : 800 pixels
Display aspect ratio        : 2.40:1
Frame rate mode             : Constant
Frame rate                  : 23.976 (24000/1001) FPS
Color space                 : YUV
Chroma subsampling          : 4:2:0
Bit depth                   : 8 bits
Scan type                   : Progressive
Bits/(Pixel*Frame)          : 0.453
Stream size                 : 12.0 GiB (89%)
Writing library             : x264 core 148 r2762+56 6284cf3 t_mod_Custom [8-bit@all X86_64]
Encoding settings           : cabac=1 / ref=5 / deblock=1:-3:-3 / analyse=0x3:0x133 / me=umh / subme=10 / psy=1 / fade_compensate=0.00 / psy_rd=1.00:0.05 / mixed_ref=1 / me_range=32 / chroma_me=1 / trellis=2 / 8x8dct=1 / cqm=0 / deadzone=21,11 / fast_pskip=1 / chroma_qp_offset=-3 / threads=6 / lookahead_threads=1 / sliced_threads=0 / nr=0 / decimate=1 / interlaced=0 / bluray_compat=0 / constrained_intra=0 / fgo=0 / bframes=8 / b_pyramid=2 / b_adapt=2 / b_bias=0 / direct=3 / weightb=1 / open_gop=0 / weightp=2 / keyint=250 / keyint_min=23 / scenecut=40 / intra_refresh=0 / rc=2pass / mbtree=0 / bitrate=16700 / ratetol=1.0 / qcomp=0.70 / qpmin=0:0:0 / qpmax=69:69:69 / qpstep=4 / cplxblur=20.0 / qblur=0.5 / ip_ratio=1.40 / pb_ratio=1.30 / aq=3:0.80 / aq-sensitivity=10.00 / aq-factor=1.00:1.00:1.00 / aq2=1:0.60 / aq2-sensitivity=15.00 / aq2-factor=1.00:1.00:1.00 / aq3=3:[0.55:0.55]:[0.55:0.55]:[0.55:0.55]:[0.55:0.55] / aq3-sensitivity=10.00 / aq3-factor=[1.00:1.00]:[1.00:1.00]:[1.00:1.00] / aq3-boundary=192:64:24
Language                    : English
Default                     : Yes
Forced                      : No
Color range                 : Limited
Matrix coefficients         : BT.709
Audio #1
ID                          : 2
Format                      : AC-3
Format/Info                 : Audio Coding 3
Mode extension              : CM (complete main)
Format settings, Endianness : Big
Codec ID                    : A_AC3
Duration                    : 1 h 45 min
Bit rate mode               : Constant
Bit rate                    : 640 kb/s
Channel(s)                  : 6 channels
Channel positions           : Front: L C R, Side: L R, LFE
Sampling rate               : 48.0 kHz
Frame rate                  : 31.250 FPS (1536 spf)
Bit depth                   : 16 bits
Compression mode            : Lossy
Stream size                 : 482 MiB (3%)
Title                       : Дубляж, CEE
Language                    : Russian
Default                     : Yes
Forced                      : No
Audio #2
ID                          : 3
Format                      : AC-3
Format/Info                 : Audio Coding 3
Mode extension              : CM (complete main)
Format settings, Endianness : Big
Codec ID                    : A_AC3
Duration                    : 1 h 45 min
Bit rate mode               : Constant
Bit rate                    : 192 kb/s
Channel(s)                  : 2 channels
Channel positions           : Front: L R
Sampling rate               : 48.0 kHz
Frame rate                  : 31.250 FPS (1536 spf)
Bit depth                   : 16 bits
Compression mode            : Lossy
Stream size                 : 145 MiB (1%)
Title                       : Двухголосый закадровый, VHS  1+1
Language                    : Ukrainian
Default                     : No
Forced                      : No
Audio #3
ID                          : 4
Format                      : AC-3
Format/Info                 : Audio Coding 3
Mode extension              : CM (complete main)
Format settings, Endianness : Big
Codec ID                    : A_AC3
Duration                    : 1 h 45 min
Bit rate mode               : Constant
Bit rate                    : 192 kb/s
Channel(s)                  : 2 channels
Channel positions           : Front: L R
Sampling rate               : 48.0 kHz
Frame rate                  : 31.250 FPS (1536 spf)
Bit depth                   : 16 bits
Compression mode            : Lossy
Stream size                 : 145 MiB (1%)
Title                       : Двухголосый закадровый,"Новий"
Language                    : Ukrainian
Default                     : No
Forced                      : No
Audio #4
ID                          : 5
Format                      : AC-3
Format/Info                 : Audio Coding 3
Mode extension              : CM (complete main)
Format settings, Endianness : Big
Codec ID                    : A_AC3
Duration                    : 1 h 45 min
Bit rate mode               : Constant
Bit rate                    : 640 kb/s
Channel(s)                  : 6 channels
Channel positions           : Front: L C R, Side: L R, LFE
Sampling rate               : 48.0 kHz
Frame rate                  : 31.250 FPS (1536 spf)
Bit depth                   : 16 bits
Compression mode            : Lossy
Stream size                 : 482 MiB (3%)
Language                    : English
Default                     : No
Forced                      : No
Text #1
ID                          : 6
Format                      : UTF-8
Codec ID                    : S_TEXT/UTF8
Codec ID/Info               : UTF-8 Plain Text
Language                    : Russian
Default                     : No
Forced                      : No
Text #2
ID                          : 7
Format                      : UTF-8
Codec ID                    : S_TEXT/UTF8
Codec ID/Info               : UTF-8 Plain Text
Language                    : English
Default                     : No
Forced                      : No
Text #3
ID                          : 8
Format                      : UTF-8
Codec ID                    : S_TEXT/UTF8
Codec ID/Info               : UTF-8 Plain Text
Title                       : SDH
Language                    : English
Default                     : No
Forced                      : No
Menu
00:00:00.000                : en:00:00:00.000
00:07:59.187                : en:00:07:59.187
00:13:31.519                : en:00:13:31.519
00:19:01.223                : en:00:19:01.223
00:27:00.536                : en:00:27:00.536
00:33:15.869                : en:00:33:15.869
00:39:45.883                : en:00:39:45.883
00:44:42.889                : en:00:44:42.889
00:50:24.730                : en:00:50:24.730
00:58:30.340                : en:00:58:30.340
01:04:51.554                : en:01:04:51.554
01:10:34.689                : en:01:10:34.689
01:15:24.478                : en:01:15:24.478
01:20:19.773                : en:01:20:19.773
01:28:02.652                : en:01:28:02.652
01:35:03.197                : en:01:35:03.197

Скриншоты

[Profile]  [PM] 
Display posts:    
Reply to topic

Current time is: 23-Jun 08:14

All times are UTC + 2



You cannot post new topics in this forum
You cannot reply to topics in this forum
You cannot edit your posts in this forum
You cannot delete your posts in this forum
You cannot vote in polls in this forum
You cannot attach files in this forum
You cannot download files in this forum