Очень плохие парни / Big Bad Wolves (Ахарон Кешалес / Aharon Keshales, Навот Папушадо / Navot Papushado) [2013, Израиль, триллер, криминал, BDRip 1080p] MVO (Лицензия) + VO (Andi) + VO (Xixidoc) + Sub Eng + Original Heb

Reply to topic
 
Author
Message

Faust ®

Gender: Unknown

Longevity: 9 years 9 months

Posts: 15476

Reputation: 0 [+] [-]

Faust · Post 23-Feb-2017 14:40

[Quote] 

Очень плохие парни / Big Bad Wolves
Страна: Израиль
Жанр: триллер, криминал
Год выпуска: 2013
Продолжительность: 01:49:44
Перевод: Профессиональный (многоголосый закадровый)
Перевод 2: Одноголосый закадровый Andi
Перевод 3: Одноголосый закадровый Xixidoc
Cубтитры: английские
Оригинальная аудиодорожка: иврит
Режиссер: Ахарон Кешалес / Aharon Keshales, Навот Папушадо / Navot Papushado
В ролях: Лиор Ашкенази, Ротем Кейнан, Цахи Град, Довале Гликман, Менаш Ной, Двир Бенедек, Каис Насеф, Нати Клюгер, Ами Вайнберг, Гай Адлер
Описание: Серия жестоких убийств связала в тугой узел судьбы трех людей: отца жертвы, полицейского и главного подозреваемого. Отец жаждет мести. Полицейский действует за рамками закона. А главный подозреваемый — преподаватель теологии — отпущен на свободу по недосмотру полиции.
Доп. информация: Рип от SbR
Сэмпл: http://multi-up.com/1142119
Тип релиза: BDRip 1080p
Контейнер: MKV
Видео: MPEG4 Video (H264) 1920x804 23.976fps 13.0 Mb/s
Аудио: [rus] (ac3, 48000 Hz, 5.1, 448 kb/s) Лицензия
Аудио 2: [rus] (dts, 48000 Hz, 5.1, 1536 kb/s) Andi
Аудио 3: [rus] (ac3, 48000 Hz, stereo, 192 kb/s) Хихидок
Аудио 4: [heb] (dts, 48000 Hz, 5.1, 1536 kb/s) Hebrew
Формат субтитров: softsub (SRT)

MediaInfo

General
Unique ID : 200561890893171390245917937731228743286 (0x96E2D0ACD85F036DB8CCDDDD79453676)
Complete name : Big.Bad.Wolves.2013.1080p.BluRay.DTS.x264-SbR.mkv
Format : Matroska
Format version : Version 4 / Version 2
File size : 12.8 GiB
Duration : 1 h 49 min
Overall bit rate : 16.7 Mb/s
Encoded date : UTC 2017-02-22 20:50:46
Writing application : mkvmerge v9.9.0 ('Pick Up') 64bit
Writing library : libebml v1.3.4 + libmatroska v1.4.5
Cover : Yes
Attachments : cover.jpg / xlog.txt
Video
ID : 1
Format : AVC
Format/Info : Advanced Video Codec
Format profile : High@L4.1
Format settings, CABAC : Yes
Format settings, ReFrames : 5 frames
Codec ID : V_MPEG4/ISO/AVC
Duration : 1 h 49 min
Bit rate : 13.0 Mb/s
Width : 1 920 pixels
Height : 804 pixels
Display aspect ratio : 2.40:1
Frame rate mode : Constant
Frame rate : 23.976 (24000/1001) FPS
Color space : YUV
Chroma subsampling : 4:2:0
Bit depth : 8 bits
Scan type : Progressive
Bits/(Pixel*Frame) : 0.351
Stream size : 9.97 GiB (78%)
Writing library : x264 core 142 r2431+42 c69a006 tMod [8-bit@4:2:0 X86_64]
Encoding settings : cabac=1 / ref=5 / deblock=1:-2:-2 / analyse=0x3:0x133 / me=umh / subme=11 / psy=1 / fade_compensate=0.00 / psy_rd=1.00:0.00 / mixed_ref=1 / me_range=32 / chroma_me=1 / trellis=2 / 8x8dct=1 / cqm=0 / deadzone=21,11 / fast_pskip=1 / chroma_qp_offset=-2 / threads=12 / lookahead_threads=2 / sliced_threads=0 / nr=0 / decimate=1 / interlaced=0 / bluray_compat=0 / constrained_intra=0 / fgo=0 / bframes=8 / b_pyramid=2 / b_adapt=2 / b_bias=0 / direct=1 / weightb=1 / open_gop=0 / weightp=2 / keyint=250 / keyint_min=23 / scenecut=40 / intra_refresh=0 / rc_lookahead=60 / rc=crf / mbtree=0 / crf=17.0000 / qcomp=0.70 / qpmin=0:0:0 / qpmax=69:69:69 / qpstep=4 / vbv_maxrate=62500 / vbv_bufsize=78125 / crf_max=0.0 / nal_hrd=none / filler=0 / ip_ratio=1.40 / pb_ratio=1.30 / aq=4:1.00 / aq-sensitivity=11.00 / aq-factor=1.00:1.00:1.00 / aq2=1:0.60 / aq2-sensitivity=9.00 / aq2-factor=1.00:1.00:1.00 / aq3=1:[0.60:0.60]:[0.60:0.60]:[0.60:0.60]:[0.60:0.60] / aq3-sensitivity=10.00 / aq3-factor=[1.00:1.00]:[1.00:1.00]:[1.00:1.00] / aq3-boundary=192:64:24
Language : Hebrew
Default : Yes
Forced : No
Color range : Limited
Color primaries : BT.709
Transfer characteristics : BT.709
Matrix coefficients : BT.709
Audio #1
ID : 2
Format : AC-3
Format/Info : Audio Coding 3
Mode extension : CM (complete main)
Format settings, Endianness : Big
Codec ID : A_AC3
Duration : 1 h 49 min
Bit rate mode : Constant
Bit rate : 448 kb/s
Channel(s) : 6 channels
Channel positions : Front: L C R, Side: L R, LFE
Sampling rate : 48.0 kHz
Frame rate : 31.250 FPS (1536 spf)
Compression mode : Lossy
Stream size : 352 MiB (3%)
Title : Лицензия
Language : Russian
Default : Yes
Forced : No
Audio #2
ID : 3
Format : DTS
Format/Info : Digital Theater Systems
Mode : 16
Format settings, Endianness : Big
Codec ID : A_DTS
Duration : 1 h 49 min
Bit rate mode : Constant
Bit rate : 1 510 kb/s
Channel(s) : 6 channels
Channel positions : Front: L C R, Side: L R, LFE
Sampling rate : 48.0 kHz
Frame rate : 93.750 FPS (512 spf)
Bit depth : 16 bits
Compression mode : Lossy
Stream size : 1.16 GiB (9%)
Title : Andi
Language : Russian
Default : No
Forced : No
Audio #3
ID : 4
Format : AC-3
Format/Info : Audio Coding 3
Mode extension : CM (complete main)
Format settings, Endianness : Big
Codec ID : A_AC3
Duration : 1 h 49 min
Bit rate mode : Constant
Bit rate : 192 kb/s
Channel(s) : 2 channels
Channel positions : Front: L R
Sampling rate : 48.0 kHz
Frame rate : 31.250 FPS (1536 spf)
Compression mode : Lossy
Stream size : 151 MiB (1%)
Title : Хихидок
Language : Russian
Default : No
Forced : No
Audio #4
ID : 5
Format : DTS
Format/Info : Digital Theater Systems
Mode : 16
Format settings, Endianness : Big
Codec ID : A_DTS
Duration : 1 h 49 min
Bit rate mode : Constant
Bit rate : 1 509 kb/s
Channel(s) : 6 channels
Channel positions : Front: L C R, Side: L R, LFE
Sampling rate : 48.0 kHz
Frame rate : 93.750 FPS (512 spf)
Bit depth : 24 bits
Compression mode : Lossy
Stream size : 1.16 GiB (9%)
Language : Hebrew
Default : No
Forced : No
Text
ID : 6
Format : UTF-8
Codec ID : S_TEXT/UTF8
Codec ID/Info : UTF-8 Plain Text
Duration : 1 h 40 min
Bit rate : 43 b/s
Count of elements : 950
Stream size : 31.8 KiB (0%)
Language : English
Default : No
Forced : No
Menu
00:00:00.000 : en:Chapter 1
00:07:02.463 : en:Chapter 2
00:15:34.016 : en:Chapter 3
00:23:52.055 : en:Chapter 4
00:32:09.886 : en:Chapter 5
00:42:29.463 : en:Chapter 6
00:51:50.232 : en:Chapter 7
01:01:32.271 : en:Chapter 8
01:08:44.829 : en:Chapter 9
01:20:57.644 : en:Chapter 10
01:33:44.035 : en:Chapter 11
01:45:31.158 : en:Chapter 12

Скриншоты

[Profile]  [PM] 
Display posts:    
Reply to topic

Current time is: 21-Jun 18:57

All times are UTC + 2



You cannot post new topics in this forum
You cannot reply to topics in this forum
You cannot edit your posts in this forum
You cannot delete your posts in this forum
You cannot vote in polls in this forum
You cannot attach files in this forum
You cannot download files in this forum