Летнее солнцестояние / Unser letzter Sommer / Letnie przesilenie (Михал Рогальский / Michal Rogalski) [2015, Польша, Германия, драма, BDRip 1080p] VO (Павел Морозов) + Sub Pol + Original Pol

Reply to topic
 
Author
Message

Faust ®

Gender: Unknown

Longevity: 9 years 9 months

Posts: 15495

Reputation: 0 [+] [-]

Faust · Post 23-Feb-2017 14:40

[Quote] 

Летнее солнцестояние / Unser letzter Sommer / Letnie przesilenie
Страна: Польша, Германия
Жанр: драма
Год выпуска: 2015
Продолжительность: 01:40:17
Перевод: Одноголосый закадровый - Павел Морозов (по субтитрам Константина Ломова)
Cубтитры: польские
Оригинальная аудиодорожка: польский
Режиссер: Михал Рогальский / Michal Rogalski
В ролях: Йонас Нэй, Филип Пиотрович, Герди Цинт, Штефен Шойман, Андре Хеннике, Мария Семотюк, Бартломей Топа, Агнешка Круковна, Кшиштоф Чечот
Описание: 1943 год. Польская провинция. Война продолжается уже четыре года. После поражения под Сталинградом всё более молодые немцы призываются в армию. Так в Польше оказался Гуидо, впечатлительный семнадцатилетний парень родом из Гамбурга. На самом деле, иностранец пытается создать себе убежище от жестокости войны и вульгарного мира своих старших коллег, полицейских. На заброшенном чердаке он слушает запрещённую музыку — джаз и отдаётся мечтам. В это же самое время его ровесник Ромек после потери отца помогает матери, работая на железной дороге. Каждый день он видит на обочине вещи, отобранные у евреев, которых вывозят в концентрационный лагерь. Не понимая сути трагедии, он смотрит на это равнодушно, пока не встречает еврейку Буню, убежавшую с поезда…
2 wins & 2 nominations
Доп. информация: К BDRip 1080p добавлен русский одноголосый закадровый перевод с этой раздачи, спасибо Сибиряк777. Ссылка на посторонний ресурс вырезана.
Сохранены главы исходного диска.
Сэмпл: http://multi-up.com/1142094
Тип релиза: BDRip 1080p
Контейнер: MKV
Видео: AVC, 11,0 Мбит/сек, 1920 x 804, 24,000 fps
Аудио 1: Russian (Dolby AC3, 2 ch), 48 kHz, 192 Kbp
Аудио 2: Polish DTS / 5.1 / 48 kHz / 1509 kbps / 24-bit kbps
Формат субтитров: softsub (SRT)

MediaInfo

Matroska
Версия формата : Version 2
Размер файла : 8,89 Гбайт
Продолжительность : 1 ч. 40 м.
Общий поток : 12,7 Мбит/сек
Дата кодирования : UTC 2017-02-22 14:07:23
Программа кодирования : mkvmerge v7.5.0 ('Glass Culture') 32bit built on Jan 4 2015 16:37:25
Библиотека кодирования : libebml v1.3.1 + libmatroska v1.4.2
DURATION : 01:40:17.024000000
NUMBER_OF_FRAMES : 188032
NUMBER_OF_BYTES : 144408576
_STATISTICS_WRITING_APP : mkvmerge v7.5.0 ('Glass Culture') 32bit built on Jan 4 2015 16:37:25
_STATISTICS_WRITING_DATE_UTC : 2017-02-22 14:07:23
_STATISTICS_TAGS : BPS DURATION NUMBER_OF_FRAMES NUMBER_OF_BYTES
Видео
Идентификатор : 1
Формат : AVC
Формат/Информация : Advanced Video Codec
Профиль формата : High@L4.1
Параметр CABAC формата : Да
Параметр ReFrames формата : 5 кадров
Идентификатор кодека : V_MPEG4/ISO/AVC
Продолжительность : 1 ч. 40 м.
Битрейт : 11,0 Мбит/сек
Ширина : 1920 пикселей
Высота : 804 пикселя
Соотношение сторон : 2,40:1
Режим частоты кадров : Постоянный
Частота кадров : 24,000 кадра/сек
Цветовое пространство : YUV
Субдискретизация насыщенности : 4:2:0
Битовая глубина : 8 бит
Тип развёртки : Прогрессивная
Бит/(Пиксели*Кадры) : 0.297
Размер потока : 7,53 Гбайт (85%)
Библиотека кодирования : x264 core 148 r2705kMod 3f5ed56
Настройки программы : cabac=1 / ref=5 / deblock=1:-3:-3 / analyse=0x3:0x133 / me=umh / subme=10 / psy=1 / fade_compensate=0.00 / psy_rd=1.00:0.00 / mixed_ref=1 / me_range=32 / chroma_me=1 / trellis=2 / 8x8dct=1 / cqm=0 / deadzone=21,11 / fast_pskip=0 / chroma_qp_offset=-2 / threads=12 / lookahead_threads=3 / sliced_threads=0 / nr=0 / decimate=0 / interlaced=0 / bluray_compat=0 / constrained_intra=0 / fgo=0 / bframes=11 / b_pyramid=2 / b_adapt=1 / b_bias=0 / direct=3 / weightb=1 / open_gop=0 / weightp=2 / keyint=250 / keyint_min=24 / scenecut=40 / intra_refresh=0 / rc=2pass / mbtree=0 / bitrate=11000 / ratetol=1.0 / qcomp=0.60 / qpmin=0 / qpmax=69 / qpstep=4 / cplxblur=20.0 / qblur=0.5 / ip_ratio=1.40 / pb_ratio=1.30 / aq=1:0.80
Язык : Russian
Default : Да
Forced : Нет
DURATION : 01:40:16.959000000
NUMBER_OF_FRAMES : 144407
NUMBER_OF_BYTES : 8269251928
_STATISTICS_WRITING_APP : mkvmerge v7.5.0 ('Glass Culture') 32bit built on Jan 4 2015 16:37:25
_STATISTICS_WRITING_DATE_UTC : 2017-02-22 14:07:23
_STATISTICS_TAGS : BPS DURATION NUMBER_OF_FRAMES NUMBER_OF_BYTES
Аудио #1
Идентификатор : 2
Формат : AC-3
Формат/Информация : Audio Coding 3
Расширение режима : CM (complete main)
Параметр Endianness формата : Big
Идентификатор кодека : A_AC3
Продолжительность : 1 ч. 40 м.
Вид битрейта : Постоянный
Битрейт : 192 Кбит/сек
Каналы : 2 канала
Расположение каналов : Front: L R
Частота : 48,0 КГц
Битовая глубина : 16 бит
Метод сжатия : С потерями
Размер потока : 138 Мбайт (2%)
Язык : Russian
Default : Да
Forced : Нет
Аудио #2
Идентификатор : 3
Формат : DTS
Формат/Информация : Digital Theater Systems
Режим : 16
Параметр Endianness формата : Big
Идентификатор кодека : A_DTS
Продолжительность : 1 ч. 40 м.
Вид битрейта : Постоянный
Битрейт : 1509 Кбит/сек
Каналы : 6 каналов
Расположение каналов : Front: L C R, Side: L R, LFE
Частота : 48,0 КГц
Битовая глубина : 24 бит
Метод сжатия : С потерями
Размер потока : 1,06 Гбайт (12%)
Язык : Polish
Default : Нет
Forced : Нет
Текст
Идентификатор : 4
Формат : UTF-8
Идентификатор кодека : S_TEXT/UTF8
Идентификатор кодека/Информация : UTF-8 Plain Text
Заголовок : Forced
Язык : Polish
Default : Нет
Forced : Нет
Меню
00:00:00.000 : en:00:00:00.000
00:08:06.486 : en:00:08:06.486
00:15:43.943 : en:00:15:43.943
00:26:01.560 : en:00:26:01.560
00:36:17.175 : en:00:36:17.175
00:45:03.701 : en:00:45:03.701
00:57:55.472 : en:00:57:55.472
01:07:35.051 : en:01:07:35.051
01:17:42.658 : en:01:17:42.658
01:28:26.301 : en:01:28:26.301
01:42:32.146 : en:01:42:32.146
01:54:21.855 : en:01:54:21.855

Скриншоты

[Profile]  [PM] 
Display posts:    
Reply to topic

Current time is: 23-Jun 08:14

All times are UTC + 2



You cannot post new topics in this forum
You cannot reply to topics in this forum
You cannot edit your posts in this forum
You cannot delete your posts in this forum
You cannot vote in polls in this forum
You cannot attach files in this forum
You cannot download files in this forum