Перед закатом / Before Sunset (Ричард Линклейтер / Richard Linklater) [2004, США, драма, мелодрама, BDRemux 1080p] [Criterion Collection] DVO (Премьер) + Sub Rus, Eng + Original Eng

Reply to topic
 
Author
Message

Faust ®

Gender: Unknown

Longevity: 10 years

Posts: 16160

Reputation: 0 [+] [-]

Faust · Post 23-Feb-2017 14:40

[Quote] 

Перед закатом / Before Sunset
Страна: США
Студия: Warner Independent Pictures (WIP), Castle Rock Entertainment, Detour Filmproduction
Жанр: драма, мелодрама
Год выпуска: 2004
Продолжительность: 01:20:32
Перевод: Профессиональный (двухголосый закадровый) Премьер
Cубтитры: русские, английские
Оригинальная аудиодорожка: английский
Режиссер: Ричард Линклейтер / Richard Linklater
В ролях: Итан Хоук, Жюли Дельпи, Вернон Добчефф, Луиз Лемуан Торрес, Родольф Поли, Мариан Пластайг, Диаболо , Дени Эврар, Альбер Дельпи, Мари Пийе и др.
Описание: Когда-то давно, в середине девяностых, случайная встреча Джесси и Селин подарила молодым людям несколько восхитительных и трогательных часов в предрассветной Вене. Спустя девять лет им снова предстоит увидеть друг друга! Теперь у них в распоряжении несколько часов в предзакатном Париже, в течение которых необходимо решить, каким станет их завтра…
II Сэмпл II IMDB II
Тип релиза: BDRemux 1080p (Before.Sunset.2004.1080p.BluRay.REMUX.AVC.DTS-HD.MA.5.1-EPSiLON)
Контейнер: MKV
Видео: AVC / 1920x1080 / 16:9 / 23.976fps / 35200Kbps / High@L4.1
Аудио 1: AC3 / 48.0 KHz / 6ch. / 384kbps / Rus / DVO / Премьер
Аудио 2: DTS-HD MA / 48.0 KHz / 6ch / 3468kbps / 24bit (DTS Core 48.0 KHz / 6ch / 1509kbps / 24bit) Eng
Формат субтитров: softsub (SRT)

MediaInfo

Общее
Уникальный идентификатор : 223005370975959309806469887013984118435 (0xA7C545AD136D33729AE3A20EDC0FA6A3)
Полное имя : D:\_Torrent\HD1\Before.Sunset.2004.BDRemux.1080p_by_vedigo.mkv
Формат : Matroska
Версия формата : Version 4 / Version 2
Размер файла : 22,0 Гбайт
Продолжительность : 1 ч. 20 м.
Режим общего битрейта : Переменный
Общий поток : 39,0 Мбит/сек
Название фильма : Before.Sunset.2004.BDRemux.1080p_by_vedigo
Дата кодирования : UTC 2017-02-22 21:56:30
Программа кодирования : mkvmerge v9.9.0 ('Pick Up') 64bit
Библиотека кодирования : libebml v1.3.4 + libmatroska v1.4.5
Видео
Идентификатор : 1
Формат : AVC
Формат/Информация : Advanced Video Codec
Профиль формата : High@L4.1
Параметр CABAC формата : Да
Параметр ReFrames формата : 4 кадра
Идентификатор кодека : V_MPEG4/ISO/AVC
Продолжительность : 1 ч. 20 м.
Вид битрейта : Переменный
Битрейт : 35,2 Мбит/сек
Максимальный битрейт : 37,0 Мбит/сек
Ширина : 1920 пикселей
Высота : 1080 пикселей
Соотношение сторон : 16:9
Режим частоты кадров : Постоянный
Частота кадров : 23,976 (24000/1001) кадра/сек
Цветовое пространство : YUV
Субдискретизация насыщенности : 4:2:0
Битовая глубина : 8 бит
Тип развёртки : Прогрессивная
Бит/(Пиксели*Кадры) : 0.707
Размер потока : 19,8 Гбайт (90%)
Заголовок : Before.Sunset.2004.BDRemux.1080p_by_vedigo
Default : Да
Forced : Нет
Аудио #1
Идентификатор : 2
Формат : AC-3
Формат/Информация : Audio Coding 3
Расширение режима : CM (complete main)
Параметр Endianness формата : Big
Идентификатор кодека : A_AC3
Продолжительность : 1 ч. 20 м.
Вид битрейта : Постоянный
Битрейт : 384 Кбит/сек
Каналы : 6 каналов
Расположение каналов : Front: L C R, Side: L R, LFE
Частота : 48,0 КГц
Частота кадров : 31,250 кадров/сек (1536 spf)
Метод сжатия : С потерями
Размер потока : 221 Мбайт (1%)
Заголовок : DVO @ Премьер
Язык : Russian
Default : Да
Forced : Нет
Аудио #2
Идентификатор : 3
Формат : DTS
Формат/Информация : Digital Theater Systems
Профиль формата : MA / Core
Режим : 16
Параметр Endianness формата : Big
Идентификатор кодека : A_DTS
Продолжительность : 1 ч. 20 м.
Вид битрейта : Переменный / Постоянный
Битрейт : 3468 Кбит/сек / 1509 Кбит/сек
Каналы : 6 каналов
Расположение каналов : Front: L C R, Side: L R, LFE
Частота : 48,0 КГц
Частота кадров : 93,750 кадра/сек (512 spf)
Битовая глубина : 24 бит
Метод сжатия : Без потерь / Lossy
Размер потока : 1,95 Гбайт (9%)
Заголовок : Original
Язык : English
Default : Нет
Forced : Нет
Текст #1
Идентификатор : 4
Формат : UTF-8
Идентификатор кодека : S_TEXT/UTF8
Идентификатор кодека/Информация : UTF-8 Plain Text
Продолжительность : 1 ч. 14 м.
Битрейт : 145 бит/сек
Count of elements : 1060
Размер потока : 79,8 Кбайт (0%)
Заголовок : Subtitle rus
Язык : Russian
Default : Нет
Forced : Нет
Текст #2
Идентификатор : 5
Формат : UTF-8
Идентификатор кодека : S_TEXT/UTF8
Идентификатор кодека/Информация : UTF-8 Plain Text
Продолжительность : 1 ч. 19 м.
Битрейт : 109 бит/сек
Count of elements : 1503
Размер потока : 63,9 Кбайт (0%)
Заголовок : Subtitle eng
Язык : English
Default : Нет
Forced : Нет
Меню
00:00:00.000 : en:"An Ocean Apart"
00:08:14.911 : en:A part of someone else's memory
00:17:30.841 : en:Walk around, think and write
00:31:35.143 : en:"Memory is a wonderful thing, if you don't have to deal with the past"
00:43:15.301 : en:Characters in that old lady's dream
00:55:57.354 : en:"I have these dreams..."
01:07:15.323 : en:"A Waltz for a Night"

Скриншоты


[Profile]  [PM] 
Display posts:    
Reply to topic

Current time is: 23-Sep 08:22

All times are UTC + 2



You cannot post new topics in this forum
You cannot reply to topics in this forum
You cannot edit your posts in this forum
You cannot delete your posts in this forum
You cannot vote in polls in this forum
You cannot attach files in this forum
You cannot download files in this forum