Сахара / Sahara (Эндрю В. МакЛаглен / Andrew V. McLaglen) [1983, Великобритания, США, драма, приключения, BDRemux 1080p] MVO + DVO + 2x AVO + Original Eng

Reply to topic
 
Author
Message

Faust ®

Gender: Unknown

Longevity: 9 years 9 months

Posts: 15476

Reputation: 0 [+] [-]

Faust · Post 23-Feb-2017 14:40

[Quote] 

Сахара / Sahara
-Страна: Великобритания, США
Жанр: драма, приключения
Год выпуска: 1983
Продолжительность: 01:46:15-Перевод 1: Профессиональный (многоголосый закадровый) Paramount channel
Перевод 2: Профессиональный (двухголосый закадровый) НТВ
Перевод 3: Авторский (одноголосый закадровый) Михалев
Перевод 4: Авторский (одноголосый закадровый) Гаврилов-Оригинальная аудиодорожка: английский-Режиссер: Эндрю В. МакЛаглен / Andrew V. McLaglen-В ролях: Брук Шилдс, Ламбер Вильсон, Яаков Бен Сира, Шеер Коэн, Джозеф Би, Рольф Брин, Хорст Бухгольц, Джон Рис-Дейвис, Рональд Лэйси, Клифф Поттс, Перри Ланг, Тувиа Тави...............-Описание:
В 1928 году прекрасная американка, наследница большого состояния, приезжает в Сахару, чтобы выполнить волю покойного отца — выиграть автогонку в пустыне. Так как к гонке допускаются только мужчины, она переодевается, ну, а затем — гонки, арабские племена, кровавые сражения, шейхи, жаждущие ее красоты…-Сэмпл: Скачать-Тип релиза: BDRemux 1080p
Контейнер: MKV-Видео: MPEG-4 AVC Video; 23000 kbps; 1080p; 23,976 fps; 16:9; High Profile 4.1
Аудио 1: Russian; AC3; 48.0 KHz; 2ch; 192 Kbps MVO
Аудио 2: Russian; AC3; 48.0 KHz; 2ch; 192 Kbps DVO
Аудио 3: Russian; AC3; 48.0 KHz; 2ch; 192 Kbps AVO
Аудио 4: Russian; AC3; 48.0 KHz; 2ch; 192 Kbps AVO
Аудио 5: English; FLAC; 48.0 KHz; 2ch; 1 311 Kbps

MediaInfo

Format : Matroska
Format version : Version 4 / Version 2
File size : 18.6 GiB
Duration : 1 h 46 min
Overall bit rate mode : Variable
Overall bit rate : 25.1 Mb/s
Encoded date : UTC 2017-02-21 17:21:46
Writing application : mkvmerge v8.3.0 ('Over the Horizon') 64bit
Writing library : libebml v1.3.1 + libmatroska v1.4.2
Attachments : poster.jpg
Video
ID : 1
Format : AVC
Format/Info : Advanced Video Codec
Format profile : High@L4.1
Format settings, CABAC : Yes
Format settings, ReFrames : 4 frames
Codec ID : V_MPEG4/ISO/AVC
Duration : 1 h 46 min
Bit rate mode : Variable
Bit rate : 23.0 Mb/s
Maximum bit rate : 34.0 Mb/s
Width : 1 920 pixels
Height : 1 080 pixels
Display aspect ratio : 16:9
Frame rate mode : Constant
Frame rate : 23.976 (24000/1001) FPS
Standard : NTSC
Color space : YUV
Chroma subsampling : 4:2:0
Bit depth : 8 bits
Scan type : Progressive
Bits/(Pixel*Frame) : 0.463
Stream size : 17.1 GiB (92%)
Default : Yes
Forced : No
Color range : Limited
Color primaries : BT.709
Transfer characteristics : BT.709
Matrix coefficients : BT.709
Audio #1
ID : 2
Format : AC-3
Format/Info : Audio Coding 3
Mode extension : CM (complete main)
Format settings, Endianness : Big
Codec ID : A_AC3
Duration : 1 h 46 min
Bit rate mode : Constant
Bit rate : 192 kb/s
Channel(s) : 2 channels
Channel positions : Front: L R
Sampling rate : 48.0 kHz
Frame rate : 31.250 FPS (1536 spf)
Bit depth : 16 bits
Compression mode : Lossy
Stream size : 146 MiB (1%)
Title : MVO Paramount channel
Language : Russian
Default : Yes
Forced : No
Audio #2
ID : 3
Format : AC-3
Format/Info : Audio Coding 3
Mode extension : CM (complete main)
Format settings, Endianness : Big
Codec ID : A_AC3
Duration : 1 h 46 min
Bit rate mode : Constant
Bit rate : 192 kb/s
Channel(s) : 2 channels
Channel positions : Front: L R
Sampling rate : 48.0 kHz
Frame rate : 31.250 FPS (1536 spf)
Bit depth : 16 bits
Compression mode : Lossy
Stream size : 146 MiB (1%)
Title : DVO НТВ
Language : Russian
Default : No
Forced : No
Audio #3
ID : 4
Format : AC-3
Format/Info : Audio Coding 3
Mode extension : CM (complete main)
Format settings, Endianness : Big
Codec ID : A_AC3
Duration : 1 h 46 min
Bit rate mode : Constant
Bit rate : 192 kb/s
Channel(s) : 2 channels
Channel positions : Front: L R
Sampling rate : 48.0 kHz
Frame rate : 31.250 FPS (1536 spf)
Bit depth : 16 bits
Compression mode : Lossy
Stream size : 146 MiB (1%)
Title : AVO Михалев
Language : Russian
Default : No
Forced : No
Audio #4
ID : 5
Format : AC-3
Format/Info : Audio Coding 3
Mode extension : CM (complete main)
Format settings, Endianness : Big
Codec ID : A_AC3
Duration : 1 h 46 min
Bit rate mode : Constant
Bit rate : 192 kb/s
Channel(s) : 2 channels
Channel positions : Front: L R
Sampling rate : 48.0 kHz
Frame rate : 31.250 FPS (1536 spf)
Bit depth : 16 bits
Compression mode : Lossy
Stream size : 146 MiB (1%)
Title : AVO Гаврилов
Language : Russian
Default : No
Forced : No
Audio #5
ID : 6
Format : FLAC
Format/Info : Free Lossless Audio Codec
Codec ID : A_FLAC
Duration : 1 h 46 min
Bit rate mode : Variable
Bit rate : 1 311 kb/s
Channel(s) : 2 channels
Channel positions : Front: L R
Sampling rate : 48.0 kHz
Frame rate : 41.667 FPS (1152 spf)
Bit depth : 24 bits
Stream size : 997 MiB (5%)
Writing library : libFLAC 1.3.1 (UTC 2014-11-25)
Language : English
Default : No
Forced : No

Скриншоты

[Profile]  [PM] 
Display posts:    
Reply to topic

Current time is: 21-Jun 18:54

All times are UTC + 2



You cannot post new topics in this forum
You cannot reply to topics in this forum
You cannot edit your posts in this forum
You cannot delete your posts in this forum
You cannot vote in polls in this forum
You cannot attach files in this forum
You cannot download files in this forum