Звездная болезнь / StarStruck (Майкл Гроссман / Michael Grossman) [2010, США, мюзикл, комедия, семейный, WEB-DL 1080p] Dub (iTunes Russia) + Sub Rus, Eng + Original Eng

Reply to topic
 
Author
Message

Faust ®

Gender: Unknown

Longevity: 10 years

Posts: 16160

Reputation: 0 [+] [-]

Faust · Post 23-Feb-2017 14:40

[Quote] 

Звездная болезнь / StarStruck
Страна: США
Жанр: Мюзикл, комедия, семейный
Год выпуска: 2010
Продолжительность: 01:24:30
Перевод: Профессиональный (дублированный) iTunes Russia
Cубтитры: Russian (Forced, iTunes), Russian (iTunes), English
Оригинальная аудиодорожка: Английская
Режиссер: Майкл Гроссман / Michael Grossman
В ролях: Стерлинг Найт, Даниэль Кэмпбелл, Мэгги Кастл, Брэндон Мишал Смит, Челси Кейн, Мэтт Уинстон, Тони Тракс, Эбби Кобб, Бет Литтлфорд, Дэн О’Коннор
Описание: Джессика Олсен едет в Лос-Анджелес посетить родственников, и по приезде у своей сестры узнает про местную крутейшую знаменитость - Кристофера Вайлда. Однажды ночью Джессика случайно встречает Кристофера. Они попадают в сумасшедшее приключение по Лос-Анджелесу и влюбляются друг в друга, но когда Джессика возвращается домой, Кристофер по национальному телевидению на вопрос что за девушку видели с ним, говорит что он совсем не знает ее и никогда не встречал. Кристофер зря это сделал...
Доп. информация:
Подгонка аудио и субтитров к видео - CergMark, CerGold
Студия дубляжа - Невафильм
Дубляж от - iTunes Russia
Субтитры:
Русские - Форсированные.
Русские - Полные
Английские - Полные
Присутствуют оригинальные и подписанные чаптеры (главы) - разбивка по эпизодам (закладки)
Ссылка на предыдущие и альтернативные раздачи
Сэмпл
Тип релиза: WEB-DL 1080p
Контейнер: MKV
Видео: MPEG-4 AVC, 14125 Кбит/с, 1920x1080, 23,976 кадр/с
Аудио 1: Русский (АС3, 6 ch, 384 Кбит/с)
Аудио 2: Английский (АС3, 6 ch, 640 Кбит/с)
Формат субтитров: softsub (SRT)

MediaInfo

Общее
Уникальный идентификатор : 242355240258355568486984562659444228902 (0xB653EBE371B6C0949CE2591D85218326)
Полное имя : D:\Фильмы\Звёздная болезнь (StarStruck).2010.x264.1080p.WEB-DL.mkv
Формат : Matroska
Версия формата : Version 4 / Version 2
Размер файла : 8,94 Гбайт
Продолжительность : 1 ч. 24 м.
Режим общего битрейта : Переменный
Общий поток : 15,1 Мбит/сек
Название фильма : Звёздная болезнь (StarStruck).2010.x264.1080p.WEB-DL_CergMark
Дата кодирования : UTC 2017-02-19 15:10:18
Программа кодирования : mkvmerge v9.8.0 ('Kuglblids') 64bit
Библиотека кодирования : libebml v1.3.4 + libmatroska v1.4.5
Видео
Идентификатор : 1
Формат : AVC
Формат/Информация : Advanced Video Codec
Профиль формата : High@L4
Параметр CABAC формата : Да
Параметр ReFrames формата : 4 кадра
Идентификатор кодека : V_MPEG4/ISO/AVC
Продолжительность : 1 ч. 24 м.
Вид битрейта : Переменный
Битрейт : 14,1 Мбит/сек
Максимальный битрейт : 15,0 Мбит/сек
Ширина : 1920 пикселей
Высота : 1080 пикселей
Соотношение сторон : 16:9
Режим частоты кадров : Постоянный
Частота кадров : 23,976 (24000/1001) кадра/сек
Цветовое пространство : YUV
Субдискретизация насыщенности : 4:2:0
Битовая глубина : 8 бит
Тип развёртки : Прогрессивная
Бит/(Пиксели*Кадры) : 0.284
Размер потока : 8,34 Гбайт (93%)
Default : Да
Forced : Нет
Цветовой диапазон : Limited
Основные цвета : BT.709
Характеристики трансфера : BT.709
Коэффициенты матрицы : BT.709
Аудио #1
Идентификатор : 2
Формат : AC-3
Формат/Информация : Audio Coding 3
Расширение режима : CM (complete main)
Параметр Endianness формата : Big
Идентификатор кодека : A_AC3
Продолжительность : 1 ч. 24 м.
Вид битрейта : Постоянный
Битрейт : 384 Кбит/сек
Каналы : 6 каналов
Расположение каналов : Front: L C R, Side: L R, LFE
Частота : 48,0 КГц
Частота кадров : 31,250 кадров/сек (1536 spf)
Битовая глубина : 16 бит
Метод сжатия : С потерями
Размер потока : 232 Мбайт (3%)
Заголовок : DUB (Дублированный)
Язык : Russian
Default : Да
Forced : Нет
Аудио #2
Идентификатор : 3
Формат : AC-3
Формат/Информация : Audio Coding 3
Расширение режима : CM (complete main)
Параметр Endianness формата : Big
Идентификатор кодека : A_AC3
Продолжительность : 1 ч. 24 м.
Вид битрейта : Постоянный
Битрейт : 640 Кбит/сек
Каналы : 6 каналов
Расположение каналов : Front: L C R, Side: L R, LFE
Частота : 48,0 КГц
Частота кадров : 31,250 кадров/сек (1536 spf)
Битовая глубина : 16 бит
Метод сжатия : С потерями
Размер потока : 387 Мбайт (4%)
Язык : English
Default : Нет
Forced : Нет
Текст #1
Идентификатор : 4
Формат : UTF-8
Идентификатор кодека : S_TEXT/UTF8
Идентификатор кодека/Информация : UTF-8 Plain Text
Продолжительность : 1 ч. 1 м.
Битрейт : 1 бит/сек
Count of elements : 15
Размер потока : 625 байт (0%)
Заголовок : Forsed (Форсированные)
Язык : Russian
Default : Да
Forced : Нет
Текст #2
Идентификатор : 5
Формат : UTF-8
Идентификатор кодека : S_TEXT/UTF8
Идентификатор кодека/Информация : UTF-8 Plain Text
Продолжительность : 1 ч. 24 м.
Битрейт : 128 бит/сек
Count of elements : 1353
Размер потока : 79,7 Кбайт (0%)
Заголовок : Full (Полные)
Язык : Russian
Default : Нет
Forced : Нет
Текст #3
Идентификатор : 6
Формат : UTF-8
Идентификатор кодека : S_TEXT/UTF8
Идентификатор кодека/Информация : UTF-8 Plain Text
Продолжительность : 1 ч. 24 м.
Битрейт : 78 бит/сек
Count of elements : 1616
Размер потока : 48,6 Кбайт (0%)
Язык : English
Default : Нет
Forced : Нет
Меню
00:00:00.000 : en:1. "Starstruck"
00:05:52.000 : en:2. No Press
00:13:04.000 : en:3. "Shades"
00:21:55.000 : en:4. "Hero"
00:29:57.000 : en:5. Malibu
00:39:15.000 : en:6. "Something About the Sunshine"
00:46:57.000 : en:7. Unreal
00:53:10.000 : en:8. "Hero" (Reprise)
01:00:13.000 : en:9. Break Up
01:06:30.000 : en:10. "Got to Believe"
01:17:20.000 : en:11. "What You Mean to Me"
01:22:11.000 : en:12. "Party Up"

Скриншоты



[Profile]  [PM] 
Display posts:    
Reply to topic

Current time is: 23-Sep 08:17

All times are UTC + 2



You cannot post new topics in this forum
You cannot reply to topics in this forum
You cannot edit your posts in this forum
You cannot delete your posts in this forum
You cannot vote in polls in this forum
You cannot attach files in this forum
You cannot download files in this forum