Мизинец Будды / Buddha\'s Little Finger (Тони Пембертон / Tony Pemberton) [2015, Россия, Канада, Германия, драма, WEB-DL] DVO (Kulzvuk Studio) + Sub Rus, Eng + Original Eng

Reply to topic
 
Author
Message

Faust ®

Gender: Unknown

Longevity: 9 years 9 months

Posts: 15476

Reputation: 0 [+] [-]

Faust · Post 23-Feb-2017 14:40

[Quote] 

Мизинец Будды / Buddha's Little Finger
Страна: Россия, Канада, Германия
Жанр: Драма
Год выпуска: 2015
Продолжительность: 01:23:49
Перевод: Любительский (двухголосый закадровый) Kulzvuk Studio
Cубтитры: английские, русские
Оригинальная аудиодорожка: английский
Режиссер: Тони Пембертон / Tony Pemberton
В ролях: Тоби Кеббелл — Пётр
Андре Хеннике — Чапаев
Карин Ванасс — Анна
Юки Ивамото — Монгол
Стипе Эрцег — Володин
Иван Шведов — Шурик
Тристан Пюттер — Колян
Давид Шеллер — Жербунов
Герди Цинт — Барболин
Анна-Мари Кадьо — Тимуровна
и другие
Описание: Безработный поэт Пётр Пустота арестован КГБ во время августовского путча 1991 года, под пытками он теряет сознание и оказывается в постреволюционной России 1919 года, где сражается на одной стороне вместе с легендарным красным кавалерийским командиром Чапаевым и его пулемётчицей Анкой. Странные провалы в памяти, бросают его то в бандитскую Москву девяностых, то в гражданскую войну. Пётр узнаёт, как долго смогут бушевать два ветра перемен одновременно в голове одного человека.
Доп. информация: Фильм снят по мотивам романа Виктора Пелевина «Чапаев и Пустота». Съемки проводились в 2012 году, премьера состоялась 6 августа 2015 в Лейпциге.
Данный фильм является версией, показанной на премьере в Германии, однако режиссер в данный момент производит перемонтаж и, возможно, свет увидит режиссерская версия.

Сэмпл: http://multi-up.com/1139701
Качество видео: WEB-DL
Формат видео: MKV
Источник: iTunes
Видео: AVC1, 1912x1072, 16:9, 23,976 кадра/сек, 5168 Кбит/сек
Аудио: AAC, 44,1 КГц, 152 Кбит/сек, stereo, Russian
Аудио 2: AC-3, 48,0 КГц, 384 Кбит/сек, 5.1, English
Формат субтитров: softsub (SRT)
Доп. информация о субтитрах: English, Russian
Внимание! Присутствует ненормативная лексика.

MediaInfo

Общее
Полное имя : D:\BuddhasLittleFinger\Buddhas Little Finger.mkv
Формат : Matroska
Версия формата : Version 4 / Version 2
Размер файла : 3,34 Гбайт
Продолжительность : 1 ч. 23 м.
Общий поток : 5706 Кбит/сек
Дата кодирования : UTC 2017-02-08 13:48:37
Программа кодирования : mkvmerge v9.8.0 ('Kuglblids') 32bit
Библиотека кодирования : libebml v1.3.4 + libmatroska v1.4.5
Видео
Идентификатор : 3
Формат : AVC
Формат/Информация : Advanced Video Codec
Профиль формата : High@L4
Параметр CABAC формата : Да
Параметр ReFrames формата : 4 кадра
Параметр GOP формата : N=1
Идентификатор кодека : V_MPEG4/ISO/AVC
Продолжительность : 1 ч. 23 м.
Битрейт : 5168 Кбит/сек
Ширина : 1912 пикселей
Высота : 1072 пикселя
Соотношение сторон : 16:9
Режим частоты кадров : Постоянный
Частота кадров : 23,976 кадра/сек
Цветовое пространство : YUV
Субдискретизация насыщенности : 4:2:0
Битовая глубина : 8 бит
Тип развёртки : Прогрессивная
Бит/(Пиксели*Кадры) : 0.105
Размер потока : 3,03 Гбайт (91%)
Язык : English
Default : Да
Forced : Нет
Цветовой диапазон : Limited
Основные цвета : BT.709
Характеристики трансфера : BT.709
Коэффициенты матрицы : BT.709
Аудио #1
Идентификатор : 1
Формат : AAC
Формат/Информация : Advanced Audio Codec
Профиль формата : LC
Идентификатор кодека : A_AAC
Продолжительность : 1 ч. 23 м.
Битрейт : 152 Кбит/сек
Каналы : 2 канала
Расположение каналов : Front: L R
Частота : 44,1 КГц
Частота кадров : 43,066 кадра/сек (1024 spf)
Метод сжатия : С потерями
Размер потока : 91,0 Мбайт (3%)
Язык : Russian
Default : Да
Forced : Нет
Аудио #2
Идентификатор : 2
Формат : AC-3
Формат/Информация : Audio Coding 3
Расширение режима : CM (complete main)
Параметр Endianness формата : Big
Идентификатор кодека : A_AC3
Продолжительность : 1 ч. 23 м.
Вид битрейта : Постоянный
Битрейт : 384 Кбит/сек
Каналы : 6 каналов
Расположение каналов : Front: L C R, Side: L R, LFE
Частота : 48,0 КГц
Частота кадров : 31,250 кадров/сек (1536 spf)
Битовая глубина : 16 бит
Метод сжатия : С потерями
Размер потока : 230 Мбайт (7%)
Язык : English
Default : Нет
Forced : Нет
Текст #1
Идентификатор : 4
Формат : UTF-8
Идентификатор кодека : S_TEXT/UTF8
Идентификатор кодека/Информация : UTF-8 Plain Text
Продолжительность : 1 ч. 17 м.
Битрейт : 70 бит/сек
Count of elements : 1034
Размер потока : 39,6 Кбайт (0%)
Язык : English
Default : Да
Forced : Нет
Текст #2
Идентификатор : 5
Формат : UTF-8
Идентификатор кодека : S_TEXT/UTF8
Идентификатор кодека/Информация : UTF-8 Plain Text
Продолжительность : 1 ч. 14 м.
Битрейт : 78 бит/сек
Count of elements : 874
Размер потока : 42,7 Кбайт (0%)
Язык : Russian
Default : Нет
Forced : Нет
Меню
00:00:00.000 : en:Chapter 1
00:08:41.187 : en:Chapter 2
00:17:52.696 : en:Chapter 3
00:26:17.242 : en:Chapter 4
00:34:45.041 : en:Chapter 5
00:41:26.942 : en:Chapter 6
00:51:24.998 : en:Chapter 7
00:59:38.491 : en:Chapter 8
01:08:10.377 : en:Chapter 9
01:18:47.138 : en:Chapter 10

Скриншот c названием фильма

Скриншоты

[Profile]  [PM] 
Display posts:    
Reply to topic

Current time is: 21-Jun 19:28

All times are UTC + 2



You cannot post new topics in this forum
You cannot reply to topics in this forum
You cannot edit your posts in this forum
You cannot delete your posts in this forum
You cannot vote in polls in this forum
You cannot attach files in this forum
You cannot download files in this forum