Крутые меры / Bastille Day (Джеймс Уоткинс / James Watkins) [2016, Великобритания, Франция, США, боевик, драма, BDRip 1080p] Dub (BD RUS) + VO + MVO + Sub Eng + Original Eng

Reply to topic
 
Author
Message

Faust ®

Gender: Unknown

Longevity: 10 years

Posts: 16172

Reputation: 0 [+] [-]

Faust · Post 23-Feb-2017 14:40

[Quote] 

Крутые меры / Bastille Day
Страна: Великобритания, Франция, США
Студия: Canal+
Жанр: Боевик, драма
Год выпуска: 2016
Продолжительность: 01:31:01
Перевод 1: Профессиональный (дублированный) BD RUS
Перевод 2: Одноголосый закадровый Д.Есарев
Перевод 3: Любительский (многоголосый закадровый) Paradox & OMSKBIRD records
Cубтитры: Английские, Финские, Немецкие, Испанские
Оригинальная аудиодорожка: английский
Режиссер: Джеймс Уоткинс / James Watkins
В ролях: Идрис Эльба, Ричард Мэдден, Келли Райлли, Шарлотта Ле Бон, Анатол Юсеф, Хорхе Леон Мартинес, Карл Фаррер, Хосе Гарсиа, Александр Купер, Эрик Эбони
Описание: Ловкий карманник Майкл Мэйсон привлекает внимание полиции и спецслужб, когда крадет сумку, содержащую гораздо больше, чем просто бумажник. На его след выходит дерзкий и резкий спецагент ЦРУ Шон Брайар. Вдвоем они становятся мишенью тайной преступной организации и в течение суток должны вывести злоумышленников на чистую воду.
Доп. Информация:
  • Сохранены оригинальные главы как на Blu-ray.
  • Рип без хардсабов.
  • За украинскую дорожку спасибо Hurtom.
  • Перевод Дмитрия Есарева доступен благодаря пользователям: Прохожий, ana2363, guinness, RW, Aniskin50, Loki1982. Работа со звуком - Переводман. Правки: Прагматик.
Скачать сэмпл
Раздача от:

Тип релиза: BDRip 1080p
Контейнер: MKV
Видео: MPEG-4 AVC, 10,5 Мбит/с, 1920x804, 24,000 fps
Aудио 1: Russian: 48 kHz/24-bit, DTS 5.1, ~1509.00 kbps avg |Дубляж, Blu-ray RUS|
Aудио 2: Russian: 48 kHz/24-bit, DTS 5.1, ~1509.00 kbps avg |Одноголосый закадровый, Д.Есарев|
Aудио 3: Russian: 48 kHz/24-bit, DTS 5.1, ~1509.00 kbps avg |Многоголосый закадровый, Paradox & OMSKBIRD records|
Аудио 4: Ukrainian: 48 kHz, AC3, 3/2 (L,C,R,l,r) + LFE ch, ~448 kbps avg |Многоголосый закадровый|
Аудио 5: English: 48 kHz/24-bit, DTS 5.1, ~1509.00 kbps avg
Формат субтитров: softsub (SRT)

MediaInfo

Общее
Уникальный идентификатор : 235857717678433721753231381354550244297 (0xB1708B4ABD1DDED0886139501461B3C9)
Полное имя : Bastille.Day.2016.1080p.BluRay 3xRus.Ukr.Eng.HDCLUB-VietHD.mkv
Формат : Matroska
Версия формата : Version 4 / Version 2
Размер файла : 10,9 Гбайт
Продолжительность : 1 ч. 32 м.
Общий поток : 16,9 Мбит/сек
Дата кодирования : UTC 2017-01-26 08:52:36
Программа кодирования : mkvmerge v9.8.0 ('Kuglblids') 64bit
Библиотека кодирования : libebml v1.3.4 + libmatroska v1.4.5
Видео
Идентификатор : 1
Формат : AVC
Формат/Информация : Advanced Video Codec
Профиль формата : High@L4.1
Параметр CABAC формата : Да
Параметр ReFrames формата : 5 кадров
Идентификатор кодека : V_MPEG4/ISO/AVC
Продолжительность : 1 ч. 32 м.
Битрейт : 10,5 Мбит/сек
Ширина : 1920 пикселей
Высота : 804 пикселя
Соотношение сторон : 2,40:1
Режим частоты кадров : Постоянный
Частота кадров : 24,000 кадра/сек
Цветовое пространство : YUV
Субдискретизация насыщенности : 4:2:0
Битовая глубина : 8 бит
Тип развёртки : Прогрессивная
Бит/(Пиксели*Кадры) : 0.282
Размер потока : 6,72 Гбайт (62%)
Заголовок : English
Библиотека кодирования : x264 core 148 r2721.18 cd45d75 VietHD_Custom_64
Настройки программы : cabac=1 / ref=5 / deblock=1:-3:-3 / analyse=0x3:0x133 / me=umh / subme=10 / psy=1 / fade_compensate=0.00 / psy_rd=1.03:0.00 / mixed_ref=1 / me_range=24 / chroma_me=1 / trellis=2 / 8x8dct=1 / cqm=0 / deadzone=21,11 / fast_pskip=0 / chroma_qp_offset=-2 / threads=12 / lookahead_threads=2 / sliced_threads=0 / nr=0 / decimate=0 / interlaced=0 / bluray_compat=0 / constrained_intra=0 / fgo=0 / bframes=7 / b_pyramid=2 / b_adapt=2 / b_bias=0 / direct=3 / weightb=1 / open_gop=0 / weightp=2 / keyint=250 / keyint_min=24 / scenecut=40 / intra_refresh=0 / rc_lookahead=60 / rc=crf / mbtree=0 / crf=17.8000 / qcomp=0.65 / qpmin=0:0:0 / qpmax=69:69:69 / qpstep=4 / vbv_maxrate=62500 / vbv_bufsize=78125 / crf_max=0.0 / nal_hrd=none / filler=0 / ip_ratio=1.30 / pb_ratio=1.20 / aq=3:0.80 / aq-sensitivity=10.00 / aq-factor=1.00:1.00:1.00 / aq2=0 / aq3=0 / zones=24,495,crf=16.3/513,811,crf=16.5/1455,2794,crf=16.5/3975,12199,crf=16.5/13743,23042,crf=16.5/55778,56068,crf=16.5/57330,58216,crf=16.5/58261,58355,crf=16.5/59154,59575,crf=16.5/60595,62605,crf=16.5/66925,68434,crf=16.5/68624,69843,crf=16.5/70014,73022,crf=16.5/73131,73323,crf=16.5/73760,74288,crf=16.5/79933,80925,crf=16.5/80990,87950,crf=16.5/91165,94499,crf=16.5/95069,95398,crf=16.5/95553,96815,crf=16.5/96960,97006,crf=16.5/98226,99040,crf=16.5/99079,100138,crf=16.5/100188,102049,crf=16.5/102929,103912,crf=16.5/104209,104304,crf=16.5/104567,105221,crf=16.5/105831,105924,crf=16.5/106608,111642,crf=16.5/112772,112856,crf=16.5/119781,121729,crf=16.5
Язык : English
Default : Да
Forced : Нет
Цветовой диапазон : Limited
Коэффициенты матрицы : BT.709
Аудио #1
Идентификатор : 2
Формат : DTS
Формат/Информация : Digital Theater Systems
Режим : 16
Параметр Endianness формата : Big
Идентификатор кодека : A_DTS
Продолжительность : 1 ч. 31 м.
Вид битрейта : Постоянный
Битрейт : 1509 Кбит/сек
Каналы : 6 каналов
Расположение каналов : Front: L C R, Side: L R, LFE
Частота : 48,0 КГц
Частота кадров : 93,750 кадра/сек (512 spf)
Битовая глубина : 24 бит
Метод сжатия : С потерями
Размер потока : 991 Мбайт (9%)
Заголовок : Дубляж, Blu-ray RUS
Язык : Russian
Default : Да
Forced : Нет
Аудио #2
Идентификатор : 3
Формат : DTS
Формат/Информация : Digital Theater Systems
Режим : 16
Параметр Endianness формата : Big
Идентификатор кодека : A_DTS
Продолжительность : 1 ч. 32 м.
Вид битрейта : Постоянный
Битрейт : 1509 Кбит/сек
Каналы : 6 каналов
Расположение каналов : Front: L C R, Side: L R, LFE
Частота : 48,0 КГц
Частота кадров : 93,750 кадра/сек (512 spf)
Битовая глубина : 24 бит
Метод сжатия : С потерями
Размер потока : 995 Мбайт (9%)
Заголовок : Одноголосый закадровый, Д.Есарев
Язык : Russian
Default : Нет
Forced : Нет
Аудио #3
Идентификатор : 4
Формат : DTS
Формат/Информация : Digital Theater Systems
Режим : 16
Параметр Endianness формата : Big
Идентификатор кодека : A_DTS
Продолжительность : 1 ч. 32 м.
Вид битрейта : Постоянный
Битрейт : 1509 Кбит/сек
Каналы : 6 каналов
Расположение каналов : Front: L C R, Side: L R, LFE
Частота : 48,0 КГц
Частота кадров : 93,750 кадра/сек (512 spf)
Битовая глубина : 24 бит
Метод сжатия : С потерями
Размер потока : 995 Мбайт (9%)
Заголовок : Многоголосый закадровый, Paradox & OMSKBIRD records
Язык : Russian
Default : Нет
Forced : Нет
Аудио #4
Идентификатор : 5
Формат : AC-3
Формат/Информация : Audio Coding 3
Расширение режима : CM (complete main)
Параметр Endianness формата : Big
Идентификатор кодека : A_AC3
Продолжительность : 1 ч. 31 м.
Вид битрейта : Постоянный
Битрейт : 448 Кбит/сек
Каналы : 6 каналов
Расположение каналов : Front: L C R, Side: L R, LFE
Частота : 48,0 КГц
Частота кадров : 31,250 кадров/сек (1536 spf)
Метод сжатия : С потерями
Размер потока : 294 Мбайт (3%)
Заголовок : Многоголосый закадровый, Hurtom-Covenant
Язык : Ukrainian
Default : Нет
Forced : Нет
Аудио #5
Идентификатор : 6
Формат : DTS
Формат/Информация : Digital Theater Systems
Режим : 16
Параметр Endianness формата : Big
Идентификатор кодека : A_DTS
Продолжительность : 1 ч. 32 м.
Вид битрейта : Постоянный
Битрейт : 1509 Кбит/сек
Каналы : 6 каналов
Расположение каналов : Front: L C R, Side: L R, LFE
Частота : 48,0 КГц
Частота кадров : 93,750 кадра/сек (512 spf)
Битовая глубина : 24 бит
Метод сжатия : С потерями
Размер потока : 993 Мбайт (9%)
Заголовок : English
Язык : English
Default : Нет
Forced : Нет
Текст #1
Идентификатор : 7
Формат : UTF-8
Идентификатор кодека : S_TEXT/UTF8
Идентификатор кодека/Информация : UTF-8 Plain Text
Продолжительность : 1 ч. 21 м.
Битрейт : 14 бит/сек
Count of elements : 310
Размер потока : 8,64 Кбайт (0%)
Заголовок : forced
Язык : English
Default : Нет
Forced : Нет
Текст #2
Идентификатор : 8
Формат : UTF-8
Идентификатор кодека : S_TEXT/UTF8
Идентификатор кодека/Информация : UTF-8 Plain Text
Продолжительность : 1 ч. 28 м.
Битрейт : 35 бит/сек
Count of elements : 651
Размер потока : 22,9 Кбайт (0%)
Заголовок : full
Язык : English
Default : Нет
Forced : Нет
Текст #3
Идентификатор : 9
Формат : UTF-8
Идентификатор кодека : S_TEXT/UTF8
Идентификатор кодека/Информация : UTF-8 Plain Text
Продолжительность : 1 ч. 28 м.
Битрейт : 38 бит/сек
Count of elements : 762
Размер потока : 24,8 Кбайт (0%)
Заголовок : SDH
Язык : English
Default : Нет
Forced : Нет
Текст #4
Идентификатор : 10
Формат : UTF-8
Идентификатор кодека : S_TEXT/UTF8
Идентификатор кодека/Информация : UTF-8 Plain Text
Продолжительность : 1 ч. 23 м.
Битрейт : 40 бит/сек
Count of elements : 573
Размер потока : 24,8 Кбайт (0%)
Заголовок : Finish
Язык : Finnish
Default : Нет
Forced : Нет
Текст #5
Идентификатор : 11
Формат : UTF-8
Идентификатор кодека : S_TEXT/UTF8
Идентификатор кодека/Информация : UTF-8 Plain Text
Продолжительность : 1 ч. 23 м.
Битрейт : 49 бит/сек
Count of elements : 751
Размер потока : 30,0 Кбайт (0%)
Заголовок : German
Язык : German
Default : Нет
Forced : Нет
Текст #6
Идентификатор : 12
Формат : UTF-8
Идентификатор кодека : S_TEXT/UTF8
Идентификатор кодека/Информация : UTF-8 Plain Text
Продолжительность : 1 ч. 28 м.
Битрейт : 60 бит/сек
Count of elements : 1072
Размер потока : 39,1 Кбайт (0%)
Заголовок : Spanish
Язык : Spanish
Default : Нет
Forced : Нет
Меню
00:00:00.000 : en:00:00:00.000
00:09:32.625 : en:00:09:32.625
00:22:20.375 : en:00:22:20.375
00:32:03.792 : en:00:32:03.792
00:41:19.708 : en:00:41:19.708
00:51:35.375 : en:00:51:35.375
01:01:01.708 : en:01:01:01.708
01:08:50.625 : en:01:08:50.625
01:20:54.500 : en:01:20:54.500
01:25:27.542 : en:01:25:27.542

Скриншоты

[Profile]  [PM] 
Display posts:    
Reply to topic

Current time is: 25-Sep 21:54

All times are UTC + 2



You cannot post new topics in this forum
You cannot reply to topics in this forum
You cannot edit your posts in this forum
You cannot delete your posts in this forum
You cannot vote in polls in this forum
You cannot attach files in this forum
You cannot download files in this forum