Гарри Поттер и философский камень / Harry Potter and the Sorcerer\'s Stone (Крис Коламбус / Chris Columbus) [2001, Великобритания, США, фэнтези, приключения, BDRip 1080p] [Расширенная версия / Extended Cut] Dub + Sub Rus, Eng + Original Eng

Reply to topic
 
Author
Message

Faust ®

Gender: Unknown

Longevity: 9 years 9 months

Posts: 15476

Reputation: 0 [+] [-]

Faust · Post 23-Feb-2017 14:40

[Quote] 

Гарри Поттер и философский камень / Harry Potter and the Sorcerer's Stone / Расширенная версия
Страна: Великобритания, США
Жанр: Фэнтези, приключения, семейный
Год выпуска: 2001
Продолжительность: 02:38:51
Перевод: Профессиональный (дублированный)
Cубтитры: русские + английские
Оригинальная аудиодорожка: английский
Режиссер: Крис Коламбус / Chris Columbus
В ролях: Ричард Харрис, Мэгги Смит, Робби Колтрейн, Саундерс Триплетс, Дэниэл Рэдклифф, Фиона Шоу, Гарри Меллинг, Ричард Гриффитс, Дерек Дэмэн, Йен Харт, Бен Боровецки, Верн Троер, Джон Харт, Ричард Бреммер, Джеральдин Соммервиль, Джули Уолтерс, Бонни Райт, Крис Ранкин, Джеймс Фелпс, Оливер Фелпс, Руперт Гринт
Описание: Жизнь десятилетнего Гарри Поттера нельзя назвать сладкой: его родители умерли, едва ему исполнился год, а от дяди и тётки, взявших сироту на воспитание, достаются лишь тычки да подзатыльники. Но в одиннадцатый день рождения Гарри всё меняется. Странный гость, неожиданно появившийся на пороге, приносит письмо, из которого мальчик узнаёт, что на самом деле он волшебник и принят в Хогвартс — школу магии. А уже через пару недель Гарри будет мчаться в поезде Хогвартс-экспресс навстречу новой жизни, где его ждут невероятные приключения, верные друзья и самое главное — ключ к разгадке тайны смерти его родителей.
Доп. информация: На 6,5 минут длиннее обычной версии.
Лет 5 назад скачал с рутрекера, а сейчас случайно заметил, что этой раздачи больше нет. Чтобы не затерялась отличная копия выкладываю снова.
P.S. За русские субтитры спасибо stan2099
Сэмпл: https://yadi.sk/i/9eyCZ2-s3ABRQR
Тип релиза: BDRip 1080p
Контейнер: MKV
Видео: 1920x816 (2.35:1), 23.976fps, MPEG4 Video (H264), ~8 759 kb/s
Аудио: 48 kHz, AC3, 3/2 (L,C,R,l,r) + LFE ch, 448 kbps avg (Русский дубляж)
Аудио 2: 48 kHz, DTS, 3/2 (L,C,R,l,r) + LFE ch, ~1509 kbps avg (Оригинальный английский)
Формат субтитров: SRT

MediaInfo

General
Unique ID : 194128622418219439209102762295436509553 (0x920BD00CF65A2D25BF2C0DC2DBD00171)
Complete name : D:\DOC\2001 Гарри Поттер и философский камень - Extended Cut.RUS(Dub)+ENG(Orig).BDRip.1080p.mkv
Format : Matroska
Format version : Version 4 / Version 2
File size : 11.9 GiB
Duration : 2h 38mn
Overall bit rate : 10.7 Mbps
Encoded date : UTC 2017-01-18 12:28:51
Writing application : mkvmerge v9.7.1 ('Pandemonium') 64bit
Writing library : libebml v1.3.4 + libmatroska v1.4.5
Video
ID : 1
Format : AVC
Format/Info : Advanced Video Codec
Format profile : High@L4.1
Format settings, CABAC : Yes
Format settings, ReFrames : 4 frames
Codec ID : V_MPEG4/ISO/AVC
Duration : 2h 38mn
Bit rate : 8 759 Kbps
Width : 1 920 pixels
Height : 816 pixels
Display aspect ratio : 2.35:1
Frame rate mode : Constant
Frame rate : 23.976 (24000/1001) fps
Color space : YUV
Chroma subsampling : 4:2:0
Bit depth : 8 bits
Scan type : Progressive
Bits/(Pixel*Frame) : 0.233
Stream size : 9.72 GiB (82%)
Title : Harry.Potter.and.the.Sorcerer.Stone.2001.Extended.Cut.Blu-ray.Re.1080p.x264.DTS.DD51.MultiAudio-MySiLU
Writing library : x264 core 68 r1183M f21daff
Encoding settings : cabac=1 / ref=4 / deblock=1:-3:-3 / analyse=0x3:0x113 / me=umh / subme=9 / psy_rd=1.2:0.2 / mixed_ref=1 / me_range=32 / chroma_me=1 / trellis=1 / 8x8dct=1 / cqm=0 / deadzone=21,11 / chroma_qp_offset=-3 / threads=12 / nr=0 / decimate=0 / mbaff=0 / bframes=3 / b_pyramid=1 / b_adapt=2 / b_bias=0 / direct=1 / wpredb=1 / keyint=250 / keyint_min=25 / scenecut=40 / rc=2pass / bitrate=8759 / ratetol=1.0 / qcomp=0.60 / qpmin=10 / qpmax=51 / qpstep=4 / cplxblur=20.0 / qblur=0.5 / vbv_maxrate=50000 / vbv_bufsize=50000 / ip_ratio=1.40 / pb_ratio=1.30 / aq=1:1.00
Language : English
Default : Yes
Forced : No
Audio #1
ID : 2
Format : AC-3
Format/Info : Audio Coding 3
Mode extension : CM (complete main)
Format settings, Endianness : Big
Codec ID : A_AC3
Duration : 2h 38mn
Bit rate mode : Constant
Bit rate : 448 Kbps
Channel(s) : 6 channels
Channel positions : Front: L C R, Side: L R, LFE
Sampling rate : 48.0 KHz
Frame rate : 31.250 fps (1536 spf)
Compression mode : Lossy
Stream size : 509 MiB (4%)
Title : Дубляж
Language : Russian
Default : Yes
Forced : No
Audio #2
ID : 3
Format : DTS
Format/Info : Digital Theater Systems
Mode : 16
Format settings, Endianness : Big
Codec ID : A_DTS
Duration : 2h 38mn
Bit rate mode : Constant
Bit rate : 1 509 Kbps
Channel(s) : 6 channels
Channel positions : Front: L C R, Side: L R, LFE
Sampling rate : 48.0 KHz
Frame rate : 93.750 fps (512 spf)
Bit depth : 24 bits
Compression mode : Lossy
Stream size : 1.67 GiB (14%)
Title : Оригинальная
Language : English
Default : No
Forced : No
Text #1
ID : 4
Format : UTF-8
Codec ID : S_TEXT/UTF8
Codec ID/Info : UTF-8 Plain Text
Duration : 2h 29mn
Bit rate : 74 bps
Count of elements : 1315
Stream size : 82.2 KiB (0%)
Language : Russian
Default : No
Forced : No
Text #2
ID : 5
Format : UTF-8
Codec ID : S_TEXT/UTF8
Codec ID/Info : UTF-8 Plain Text
Duration : 2h 37mn
Bit rate : 41 bps
Count of elements : 1293
Stream size : 47.3 KiB (0%)
Language : English
Default : No
Forced : No

Скриншоты

[Profile]  [PM] 
Display posts:    
Reply to topic

Current time is: 21-Jun 19:26

All times are UTC + 2



You cannot post new topics in this forum
You cannot reply to topics in this forum
You cannot edit your posts in this forum
You cannot delete your posts in this forum
You cannot vote in polls in this forum
You cannot attach files in this forum
You cannot download files in this forum