Игра в прятки / Hide and Seek (Джон Полсон / John Polson) [2005, США, Германия, ужасы, триллер, детектив, HDRip] Dub

Reply to topic
 
Author
Message

Wolf ®

Gender: Unknown

Longevity: 11 years

Posts: 3104

Reputation: 0 [+] [-]

Wolf · Post 23-Feb-2017 18:45

[Quote] 

-Игра в прятки / Hide and Seek
«Кто не спрятался - я не виноват»- -Страна: США, Германия
Жанр: ужасы, триллер, детектив
Год выпуска: 2005
Продолжительность: 01:40:52-Перевод: Профессиональный (дублированный)
Cубтитры: нет
Оригинальная аудиодорожка: нет-Режиссер: Джон Полсон / John Polson-В ролях: Роберт Де Ниро, Дакота Фаннинг, Фамке Янссен, Элизабет Шу, Эми Ирвинг, Дилан Бейкер, Мелисса Лео, Роберт Джон Бёрк, Молли Грант Кэллинс, Дэвид Чандлер-Описание: Отец-вдовец отчаянно пытается пробиться к своей 9-летней дочери, создавшей себе подлого маниакального воображаемого друга, одержимого идеей мести отцу. Однако воображаемые друзья могут войти и в реальную жизнь…- - -Качество видео: HDRip / BDRip 1080p
Формат видео: AVI-Видео: XviD build 67, 688x288 (2.40:1), 23.976 fps, ~898 kbps avg, 0.189 bit/pixel
Аудио: 48 kHz, MP3, 2/0 (L,R) ch, ~128 kbps avg-

MediaInfo

Complete name : C:\Users\ИВАН\Desktop\Игра в прятки (2004) HDRip_ivanes20031987.avi
Format : AVI
Format/Info : Audio Video Interleave
File size : 747 MiB
Duration : 1 h 40 min
Overall bit rate : 1 035 kb/s
Writing application : VirtualDubMod 1.5.10.3 | www.virtualdub-fr.org || (build 2550/release)
Writing library : VirtualDubMod build 2550/release
Video
ID : 0
Format : MPEG-4 Visual
Format profile : Advanced Simple@L5
Format settings, BVOP : 1
Format settings, QPel : No
Format settings, GMC : No warppoints
Format settings, Matrix : Custom
Codec ID : XVID
Codec ID/Hint : XviD
Duration : 1 h 40 min
Bit rate : 898 kb/s
Width : 688 pixels
Height : 288 pixels
Display aspect ratio : 2.40:1
Frame rate : 23.976 (24000/1001) FPS
Color space : YUV
Chroma subsampling : 4:2:0
Bit depth : 8 bits
Scan type : Progressive
Compression mode : Lossy
Bits/(Pixel*Frame) : 0.189
Stream size : 648 MiB (87%)
Writing library : XviD 67
Audio
ID : 1
Format : MPEG Audio
Format version : Version 1
Format profile : Layer 3
Mode : Joint stereo
Mode extension : MS Stereo
Codec ID : 55
Codec ID/Hint : MP3
Duration : 1 h 40 min
Bit rate mode : Constant
Bit rate : 128 kb/s
Channel(s) : 2 channels
Sampling rate : 48.0 kHz
Compression mode : Lossy
Stream size : 92.3 MiB (12%)
Alignment : Aligned on interleaves
Interleave, duration : 42 ms (1.00 video frame)
Interleave, preload duratio : 504 ms
Writing library : LAME3.99r
Encoding settings : -m j -V 4 -q 2 -lowpass 17 -b 128

Скриншот c названием фильма

Скриншоты

[Profile]  [PM] 
Display posts:    
Reply to topic

Current time is: 25-Jul 22:05

All times are UTC + 2



You cannot post new topics in this forum
You cannot reply to topics in this forum
You cannot edit your posts in this forum
You cannot delete your posts in this forum
You cannot vote in polls in this forum
You cannot attach files in this forum
You cannot download files in this forum