Преданный / Предательство / Betrayed (Коста-Гаврас / Costa-Gavras) [1988, США, Япония, драма, триллер, BDRemux 1080p] DVO (НТВ+) + VO (Стасюк) + Sub Eng + Original Eng

Reply to topic
 
Author
Message

Faust ®

Gender: Unknown

Longevity: 10 years

Posts: 16140

Reputation: 0 [+] [-]

Faust · Post 23-Feb-2017 18:45

[Quote] 

Преданный / Предательство / Betrayed
Страна: США, Япония
Студия: Metro Goldwyn Mayer
Жанр: драма, триллер
Год выпуска: 1988
Продолжительность: 02:06:37
Перевод: Профессиональный (двухголосый закадровый) - НТВ+
Перевод 2: Одноголосый закадровый - Дмитрий Стасюк
Cубтитры: английские
Оригинальная аудиодорожка: английский
Режиссер: Коста-Гаврас / Costa-Gavras
В ролях: Дебра Уингер, Том Беренджер, Джон Хёрд, Бетси Блэр, Джон Махони, Тед Левайн, Джефри ДеМанн, Альберт Холл, Дэвид Кленнон, Роберт Суон, Ричард Либертини, Мария Валдез, Брайан Босак, Алан Уайлдер, Клиффорд А. Пеллоу, Ральф Фуди, Шон Шеппс, Долорес Дрэйк, Стивен Е. Миллер, Сьюзи Пэйн, Кристофер Кубасик, Тимоти Джером, Джек Экройд, Ховард Сигел, Растон Харкер, Ховард Стори, Билл Дау, Лесли Штольценбергер, Терри Дэвид Маллиган, Фред Китинг, Дэн Конуэй, Уилл Царн, Кевин С. Уайт, Джефферсон Вагнер, Джоэль Дэйли, Боб Херрон, Эрик Гейсрейтер, Эд Джонсон, Уэйн Лосон, Рейд Сейберт, Вик Вогт, Фрэнк Хэрмон, Уолтер Марш, Лерой Р. Хорн, У. Уэйн Аррэнтс, Мими Бенсингер, Билл Корсейр, Джудит С. Джейкобс, Джойс Ли Боуден, Роджер Парсонс, Мэри Шармат, Тимоти Хаттон, Роберт Минкофф
Описание: В Чикаго происходит убийство - убит ведущий популярного радиошоу, обладатель звания «Голос Среднего Запада» - афроамериканец Сэм Краус. Его труп находят в его собственном гараже вместе с надписью ZOG (Сионистское оккупационное правительство). В своей передаче Сэм затрагивал острые социальные проблемы, и расисты решили ему отомстить.
ФБР решает найти убийц популярного журналиста. Есть сведения, что к убийству причастна группа белых расистов из сельских районов Среднего Запада. А главный подозреваемый — некто Гэри Симмонс. ФБР решает внедрить своего агента — привлекательную женщину Кэтрин Филлипс в сельский район под именем Кэти Уиверс.
Кэти начинает свою новую жизнь в деревне — теперь она комбайнёр и должна убирать урожай на ферме Гэри Симмонса. Там Кэти и знакомится с Гэри. Гэри в прошлом воевал во Вьетнаме, был женат, но овдовел. У него осталось двое детей — сын и дочь. Кэти знакомится с ними, а также и с матерью Гэри.
Сам Гэри красив, добр и мужественен, и Кэти полагает, что он не виновен. Между Кэти и Гэри возникает дружба, которая постепенно перерастает в любовь. Детям Гэри Кэти тоже нравится, да и она сама к ним привязываается. Когда работа по сбору урожая завершена, Гэри просит Кэти остаться у него насовсем.
Он фактически предлагает Кэти стать его женой. И теперь он готов открыть своей избраннице страшную тайну. Оказывается Гэри — расист, и он убивает чернокожих. А сама Кэти тоже должна готовиться к своей первой «охоте». Теперь Кэти Уиверс стоит перед выбором: кого же предать — свои идеалы и долг или человека, которого она полюбила.
Доп. информация: Найденный в сети блюр, содержащий английский оригинал и английские субтитры, преобразован в ремукс добавлением синхронизированных Нордером двух русских аудиодорог из релиза - http://torrentsland.com.ua/forum/viewtopic.php?t=4631394
Сэмпл: https://yadi.sk/i/7i9iw1XJ3ESJEh
Тип релиза: BDRemux 1080p
Контейнер: MKV
Видео: 21797 Кбит/сек, NTSC 1920*1080 (16:9), 23,976 (24000/1001) кадра/сек, AVC
Аудио: Русский, 192 Кбит/сек, 48,0 КГц, 2 канала, AC-3 - двухголоска
Аудио 2: Русский, 192 Кбит/сек, 48,0 КГц, 2 канала, AC-3 - одноголоска
Аудио 3: Английский, DTS-HD MA, 2.0 / 48 kHz / 1987 kbps / 24-bit (DTS Core: 2.0 / 48 kHz / 1509 kbps / 24-bit)
Формат субтитров: UTF

MediaInfo

ОбщееУникальный идентификатор                 : 202474895546275664176782098500075432051 (0x98533F1629A29952B4C46572331CA873)Полное имя                               : Q:\MONAR\Видео\Художественные фильмы\Зарубежное кино\Преданный (1988).mkvФормат                                   : MatroskaВерсия формата                           : Version 4 / Version 2Размер файла                             : 21,3 ГбайтПродолжительность                        : 2 ч. 6 м.Режим общего битрейта                    : ПеременныйОбщий поток                              : 24,1 Мбит/секНазвание фильма                          : Betrayed (1988)Дата кодирования                         : UTC 2017-02-22 15:36:17Программа кодирования                    : mkvmerge v9.6.0 ('Slave To Your Mind') 64bitБиблиотека кодирования                   : libebml v1.3.4 + libmatroska v1.4.5
ВидеоИдентификатор : 1Формат : AVCФормат/Информация : Advanced Video CodecПрофиль формата : High@L4.1Параметр CABAC формата : ДаПараметр ReFrames формата : 4 кадраИдентификатор кодека : V_MPEG4/ISO/AVCПродолжительность : 2 ч. 6 м.Вид битрейта : ПеременныйБитрейт : 21,7 Мбит/секМаксимальный битрейт : 38,0 Мбит/секШирина : 1920 пикселейВысота : 1080 пикселейСоотношение сторон : 16:9Режим частоты кадров : ПостоянныйЧастота кадров : 23,976 (24000/1001) кадра/секЦветовое пространство : YUVСубдискретизация насыщенности : 4:2:0Битовая глубина : 8 битТип развёртки : ПрогрессивнаяБит/(Пиксели*Кадры) : 0.437Размер потока : 19,2 Гбайт (90%)Язык : EnglishDefault : ДаForced : Нет
Аудио #1Идентификатор : 2Формат : AC-3Формат/Информация : Audio Coding 3Расширение режима : CM (complete main)Параметр Endianness формата : BigИдентификатор кодека : A_AC3Продолжительность : 2 ч. 6 м.Вид битрейта : ПостоянныйБитрейт : 192 Кбит/секКаналы : 2 каналаРасположение каналов : Front: L RЧастота : 48,0 КГцЧастота кадров : 31,250 кадров/сек (1536 spf)Битовая глубина : 16 битМетод сжатия : С потерямиРазмер потока : 174 Мбайт (1%)Заголовок : DVOЯзык : RussianDefault : ДаForced : Нет
Аудио #2Идентификатор : 3Формат : AC-3Формат/Информация : Audio Coding 3Расширение режима : CM (complete main)Параметр Endianness формата : BigИдентификатор кодека : A_AC3Продолжительность : 2 ч. 6 м.Вид битрейта : ПостоянныйБитрейт : 192 Кбит/секКаналы : 2 каналаРасположение каналов : Front: L RЧастота : 48,0 КГцЧастота кадров : 31,250 кадров/сек (1536 spf)Битовая глубина : 16 битМетод сжатия : С потерямиРазмер потока : 174 Мбайт (1%)Заголовок : VOЯзык : RussianDefault : НетForced : Нет
Аудио #3Идентификатор : 4Формат : DTSФормат/Информация : Digital Theater SystemsПрофиль формата : MA / CoreРежим : 16Параметр Endianness формата : BigИдентификатор кодека : A_DTSПродолжительность : 2 ч. 6 м.Вид битрейта : Переменный / ПостоянныйБитрейт : 1987 Кбит/сек / 1509 Кбит/секКаналы : 2 каналаРасположение каналов : Front: L RЧастота : 48,0 КГцЧастота кадров : 93,750 кадра/сек (512 spf)Битовая глубина : 24 битМетод сжатия : Без потерь / LossyРазмер потока : 1,76 Гбайт (8%)Заголовок : originalЯзык : EnglishDefault : НетForced : Нет
ТекстИдентификатор : 5Формат : UTF-8Идентификатор кодека : S_TEXT/UTF8Идентификатор кодека/Информация : UTF-8 Plain TextПродолжительность : 2 ч. 5 м.Битрейт : 58 бит/секCount of elements : 2057Размер потока : 54,2 Кбайт (0%)Заголовок : srtЯзык : EnglishDefault : НетForced : Нет
Меню00:00:00.000 : en:00:00:0000:00:10.927 : en:00:00:1000:18:06.668 : en:00:18:0600:34:43.289 : en:00:34:4300:50:56.470 : en:00:50:5601:05:06.736 : en:01:05:0601:22:09.799 : en:01:22:0901:39:37.888 : en:01:39:3701:53:30.762 : en:01:53:3002:06:48.350 : en:02:06:48

Скриншоты

[Profile]  [PM] 
Display posts:    
Reply to topic

Current time is: 20-Sep 15:37

All times are UTC + 2



You cannot post new topics in this forum
You cannot reply to topics in this forum
You cannot edit your posts in this forum
You cannot delete your posts in this forum
You cannot vote in polls in this forum
You cannot attach files in this forum
You cannot download files in this forum