Летнее солнцестояние / Unser letzter Sommer / Letnie przesilenie (Михал Рогальский / Michal Rogalski) [2015, Польша, Германия, Драма, военный, HDRip] VO (Павел Морозов) + Sub Ger

Reply to topic
 
Author
Message

Satyr ®

Online

Gender: Unknown

Longevity: 12 years

Posts: 17867

Reputation: 56 [+] [-]

Satyr · Post 23-Feb-2017 22:50

[Quote] 

Летнее солнцестояние / Unser letzter Sommer / Letnie przesilenie
Страна: Польша, Германия
Жанр: Драма, военный
Год выпуска: 2015
Продолжительность: 01:40:01-Перевод: Одноголосый закадровый - Павел Морозов (по субтитрам Константина Ломова)
Cубтитры: немецкие (вшитые субтитры хардсаб)-Режиссер: Михал Рогальский / Michal Rogalski-В ролях: Йонас Нэй, Филип Пиотрович, Герди Цинт, Штефен Шойман, Андре Хеннике, Мария Семотюк, Бартломей Топа, Агнешка Круковна, Кшиштоф Чечот-Описание: 1943 год. Польская провинция. Война продолжается уже четыре года. После поражения под Сталинградом всё более молодые немцы призываются в армию. Так в Польше оказался Гуидо, впечатлительный семнадцатилетний парень родом из Гамбурга. На самом деле, иностранец пытается создать себе убежище от жестокости войны и вульгарного мира своих старших коллег, полицейских. На заброшенном чердаке он слушает запрещённую музыку — джаз и отдаётся мечтам. В это же самое время его ровесник Ромек после потери отца помогает матери, работая на железной дороге. Каждый день он видит на обочине вещи, отобранные у евреев, которых вывозят в концентрационный лагерь. Не понимая сути трагедии, он смотрит на это равнодушно, пока не встречает еврейку Буню, убежавшую с поезда…
Сэмпл: http://multi-up.com/1141213
Качество видео: HDRip
Формат видео: MKV
Видео: MPEG-4 AVC, 720x302 (2.40:1), 24.000 fps, 924 Kbps
Аудио: 44.1 KHz, MPEG Layer 3, 2 ch, 128 kbps

MediaInfo

General
Complete name : Downloads\Unser letzter Sommer.2015.mkv
Format : Matroska
Format version : Version 4 / Version 2
File size : 700 MiB
Duration : 1h 40mn
Overall bit rate : 975 Kbps
Encoded date : UTC 2017-02-16 04:30:40
Writing application : mkvmerge v6.6.0 ('The Edge Of The In Between') built on Dec 1 2013 17:55:00
Writing library : libebml v1.3.0 + libmatroska v1.4.1
Video #1
ID : 1
Format : AVC
Format/Info : Advanced Video Codec
Format profile : High@L3.1
Format settings, CABAC : Yes
Format settings, ReFrames : 5 frames
Codec ID : V_MPEG4/ISO/AVC
Duration : 1h 40mn
Bit rate : 924 Kbps
Width : 720 pixels
Height : 302 pixels
Display aspect ratio : 2.40:1
Frame rate mode : Constant
Frame rate : 24.000 fps
Color space : YUV
Chroma subsampling : 4:2:0
Bit depth : 8 bits
Scan type : Progressive
Bits/(Pixel*Frame) : 0.177
Stream size : 663 MiB (95%)
Writing library : x264 core 148 r2692 64f4e24
Encoding settings : cabac=1 / ref=5 / deblock=1:-3:-3 / analyse=0x3:0x113 / me=umh / subme=7 / psy=1 / psy_rd=1.00:0.15 / mixed_ref=1 / me_range=16 / chroma_me=1 / trellis=1 / 8x8dct=1 / cqm=0 / deadzone=21,11 / fast_pskip=0 / chroma_qp_offset=-3 / threads=9 / lookahead_threads=1 / sliced_threads=0 / nr=0 / decimate=1 / interlaced=0 / bluray_compat=0 / constrained_intra=0 / bframes=3 / b_pyramid=2 / b_adapt=2 / b_bias=0 / direct=3 / weightb=1 / open_gop=0 / weightp=2 / keyint=240 / keyint_min=24 / scenecut=40 / intra_refresh=0 / rc_lookahead=40 / rc=crf / mbtree=1 / crf=19.0 / qcomp=0.60 / qpmin=0 / qpmax=69 / qpstep=4 / ip_ratio=1.40 / aq=1:1.00
Language : English
Default : Yes
Forced : No
Matrix coefficients : BT.709
Color range : Limited
Audio #2
ID : 2
Format : MPEG Audio
Format version : Version 1
Format profile : Layer 3
Mode : Joint stereo
Codec ID : A_MPEG/L3
Codec ID/Hint : MP3
Duration : 1h 40mn
Bit rate mode : Constant
Bit rate : 32.0 Kbps
Channel(s) : 2 channels
Sampling rate : 44.1 KHz
Compression mode : Lossy
Stream size : 23.0 MiB (3%)
Default : Yes
Forced : No

Скриншот c названием фильма

Скриншоты

[Profile]  [PM] 
Display posts:    
Reply to topic

Current time is: 25-Jul 20:18

All times are UTC + 2



You cannot post new topics in this forum
You cannot reply to topics in this forum
You cannot edit your posts in this forum
You cannot delete your posts in this forum
You cannot vote in polls in this forum
You cannot attach files in this forum
You cannot download files in this forum