Когда лучший друг - гей / G.B.F. (Даррен Стейн / Darren Stein) [2013, США, комедия, HDRip] VO (Кошкин) + Sub Rus, Eng + Original Eng

Reply to topic
 
Author
Message

Satyr ®

Gender: Unknown

Longevity: 12 years

Posts: 18165

Reputation: 56 [+] [-]

Satyr · Post 24-Feb-2017 11:10

[Quote] 

Когда лучший друг - гей / G.B.F.

Страна: США
Жанр: комедия
Год выпуска: 2013
Продолжительность: 01:32:49
Перевод: Одноголосый закадровый - Василий Кошкин по переводу Марата Шахмутдинова
Cубтитры: русские (dimambo, angry_fish), английские
Оригинальная аудиодорожка: английский

Режиссер: Даррен Стейн / Darren Stein
В ролях: Майкл Дж. Виллетт, Пол Яконо, Саша Питерс, Андреа Бауэн, Соша Рокемор, Молли Тарлов, Эванна Линч, Джоанна Левески, Дерек Мио, Наташа Лионн
Описание: Во время борьбы за лидерство между самыми популярными школьницами возникает неожиданный поворот, когда ученик по имени Теннер впервые в открытую заявляет о своей гомосексуальности. Гонки между теми кто стремится оставаться на «плаву» известности, заставят лучшего друга — Теннера, выбирать между стремительно растущей популярностью и друзьями, которых придется оставить позади.
Качество видео: HDRip
Формат видео: AVI
Видео: 720x384 (1.88:1), 23.976 fps, XviD build 73 ~2042 kbps avg, 0.31 bit/pixel
Аудио: 48 kHz, AC3 Dolby Digital, 2/0 (L,R) ch, ~192 kbps - одноголосый
Аудио: 48 kHz, AC3 Dolby Digital, 3/2 (L,C,R,l,r) + LFE ch, ~448 kbps - оригинал (отдельно)
Формат субтитров: softsub (SRT)

MediaInfo

General
Complete name : H:\G.B.F.2013.hdrip_[1.46]_[teko]\G.B.F.2013.hdrip_[1.46].avi
Format : AVI
Format/Info : Audio Video Interleave
File size : 1.45 GiB
Duration : 1h 32mn
Overall bit rate : 2 244 Kbps
Writing application : VirtualDubMod 1.5.10.3 | www.virtualdub-fr.org || (build 2550/release)
Writing library : VirtualDubMod build 2550/release
Video
ID : 0
Format : MPEG-4 Visual
Format profile : Advanced Simple@L5
Format settings, BVOP : 2
Format settings, QPel : No
Format settings, GMC : No warppoints
Format settings, Matrix : Custom
Codec ID : XVID
Codec ID/Hint : XviD
Duration : 1h 32mn
Bit rate : 2 043 Kbps
Width : 720 pixels
Height : 384 pixels
Display aspect ratio : 1.85:1
Frame rate : 23.976 (23976/1000) fps
Color space : YUV
Chroma subsampling : 4:2:0
Bit depth : 8 bits
Scan type : Progressive
Compression mode : Lossy
Bits/(Pixel*Frame) : 0.308
Stream size : 1.32 GiB (91%)
Writing library : XviD 73
Audio
ID : 1
Format : AC-3
Format/Info : Audio Coding 3
Mode extension : CM (complete main)
Format settings, Endianness : Big
Codec ID : 2000
Duration : 1h 32mn
Bit rate mode : Constant
Bit rate : 192 Kbps
Channel(s) : 2 channels
Channel positions : Front: L R
Sampling rate : 48.0 KHz
Frame rate : 31.250 fps (1536 spf)
Compression mode : Lossy
Stream size : 127 MiB (9%)
Alignment : Split accross interleaves
Interleave, duration : 42 ms (1.00 video frame)
Interleave, preload duratio : 500 ms
Релиз группы:
--
[Profile]  [PM] 
Display posts:    
Reply to topic

Current time is: 20-Sep 15:36

All times are UTC + 2



You cannot post new topics in this forum
You cannot reply to topics in this forum
You cannot edit your posts in this forum
You cannot delete your posts in this forum
You cannot vote in polls in this forum
You cannot attach files in this forum
You cannot download files in this forum