Ошибка времени / Time Lapse (Брэдли Кинг / Bradley King) [2014, США, фантастика, триллер, BDRip-AVC] Dub + MVO + Original Eng + Sub (Rus, Eng)

Reply to topic
 
Author
Message

Satyr ®

Online

Gender: Unknown

Longevity: 12 years

Posts: 17867

Reputation: 56 [+] [-]

Satyr · Post 26-Feb-2017 00:10

[Quote] 

Ошибка времени / Time Lapse- Страна: США
Жанр: фантастика, триллер
Год выпуска: 2014
Продолжительность: 01:44:08
Перевод 1: Профессиональный (дублированный)
Перевод 2: Профессиональный (многоголосый закадровый)
Cубтитры: русские, английские
Оригинальная аудиодорожка: английский
Режиссер: Брэдли Кинг / Bradley King
В ролях: Даниэль Панабэйкер, Мэтью О'Лири, Джордж Финн, Эймин Джозеф, Джейсон Спайсэк, Дэвид Фильоли, Шэрон Мофан, Джудит Дрэйк, Марк С. Хэнсон...
Описание: Трое приятелей - подающий надежды художник и по совместительству управдом Финн, его девушка официантка и писательница Кэлли и их друг Джаспер, помешанный на собачьих гонках, - находят в комнате соседа-ученого странное изобретение - машину, печатающую фотографии из будущего дня. Теперь Джаспер знает, на каких собак нужно ставить, и Финн и Кэлли могут, наконец, посвятить себя любимым занятиям. Но вскоре визуальные пророчества загадочной машины начинают обескураживать и пугать героев...
Сэмпл: http://sendfile.su/1311883

Качество видео: BDRip-AVC (Time.Lapse.2014.BDRemux.1080p.NovaLan)
Формат видео: MKV
Видео: x264, 1120x630 (16:9) 23,976 fps, ~1945 kbps, 0,115 bit/pixel
Аудио 1: 48 kHz, AC3 Dolby Digital, 3/2 (L,C,R,l,r) + LFE ch, ~384 kbps | iTunes
Аудио 2: 48 kHz, AC3, 2/0 (L,R) ch, ~224 kbps avg | MVO
Аудио 3: 48 kHz, AC3 Dolby Digital, 3/2 (L,C,R,l,r) + LFE ch, ~448 kbps | Английский
Формат субтитров: softsub (SRT)

MediaInfo

General
Unique ID : 235182956319736721828109472982609107106 (0xB0EE96FD09FFC5D2853D6F1960FB18A2)
Format : Matroska
Format version : Version 4 / Version 2
File size : 2.18 GiB
Duration : 1h 44mn
Overall bit rate : 2 996 Kbps
Encoded date : UTC 2017-02-23 16:50:13
Writing application : mkvmerge v9.9.0 ('Pick Up') 64bit
Writing library : libebml v1.3.4 + libmatroska v1.4.5
Video #1
ID : 1
Format : AVC
Format/Info : Advanced Video Codec
Format profile : High@L4.1
Format settings, CABAC : Yes
Format settings, ReFrames : 10 frames
Codec ID : V_MPEG4/ISO/AVC
Duration : 1h 44mn
Bit rate : 1 945 Kbps
Width : 1 120 pixels
Height : 630 pixels
Display aspect ratio : 16:9
Frame rate mode : Constant
Frame rate : 23.976 (24000/1001) fps
Color space : YUV
Chroma subsampling : 4:2:0
Bit depth : 8 bits
Scan type : Progressive
Bits/(Pixel*Frame) : 0.115
Stream size : 1.41 GiB (65%)
Writing library : x264 core 148 r2638 7599210
Encoding settings : cabac=1 / ref=10 / deblock=1:-3:-2 / analyse=0x3:0x133 / me=umh / subme=10 / psy=1 / psy_rd=1.00:0.00 / mixed_ref=1 / me_range=32 / chroma_me=1 / trellis=2 / 8x8dct=1 / cqm=0 / deadzone=21,11 / fast_pskip=0 / chroma_qp_offset=-2 / threads=6 / lookahead_threads=1 / sliced_threads=0 / nr=0 / decimate=1 / interlaced=0 / bluray_compat=0 / constrained_intra=0 / bframes=13 / b_pyramid=2 / b_adapt=2 / b_bias=0 / direct=1 / weightb=1 / open_gop=0 / weightp=2 / keyint=250 / keyint_min=23 / scenecut=40 / intra_refresh=0 / rc=2pass / mbtree=0 / bitrate=1945 / ratetol=1.0 / qcomp=0.65 / qpmin=0 / qpmax=69 / qpstep=4 / cplxblur=20.0 / qblur=0.5 / ip_ratio=1.40 / pb_ratio=1.30 / aq=3:0.90
Language : English
Default : Yes
Forced : No
Audio #2
ID : 2
Format : AC-3
Format/Info : Audio Coding 3
Mode extension : CM (complete main)
Format settings, Endianness : Big
Codec ID : A_AC3
Duration : 1h 44mn
Bit rate mode : Constant
Bit rate : 384 Kbps
Channel(s) : 6 channels
Channel positions : Front: L C R, Side: L R, LFE
Sampling rate : 48.0 KHz
Frame rate : 31.250 fps (1536 spf)
Compression mode : Lossy
Stream size : 286 MiB (13%)
Title : iTunes
Language : Russian
Default : Yes
Forced : No
Audio #3
ID : 3
Format : AC-3
Format/Info : Audio Coding 3
Format profile : Dolby Digital
Mode extension : CM (complete main)
Format settings, Endianness : Big
Codec ID : A_AC3
Duration : 1h 44mn
Bit rate mode : Constant
Bit rate : 224 Kbps
Channel(s) : 2 channels
Channel positions : Front: L R
Sampling rate : 48.0 KHz
Frame rate : 31.250 fps (1536 spf)
Compression mode : Lossy
Stream size : 167 MiB (7%)
Title : MVO
Language : Russian
Default : No
Forced : No
Audio #4
ID : 4
Format : AC-3
Format/Info : Audio Coding 3
Mode extension : CM (complete main)
Format settings, Endianness : Big
Codec ID : A_AC3
Duration : 1h 44mn
Bit rate mode : Constant
Bit rate : 448 Kbps
Channel(s) : 6 channels
Channel positions : Front: L C R, Side: L R, LFE
Sampling rate : 48.0 KHz
Frame rate : 31.250 fps (1536 spf)
Compression mode : Lossy
Stream size : 334 MiB (15%)
Language : English
Default : No
Forced : No
Text #5
ID : 5
Format : UTF-8
Codec ID : S_TEXT/UTF8
Codec ID/Info : UTF-8 Plain Text
Duration : 1h 38mn
Bit rate : 0 bps
Count of elements : 14
Stream size : 485 Bytes (0%)
Title : Forced
Language : Russian
Default : Yes
Forced : No
Text #6
ID : 6
Format : UTF-8
Codec ID : S_TEXT/UTF8
Codec ID/Info : UTF-8 Plain Text
Duration : 1h 38mn
Bit rate : 77 bps
Count of elements : 1012
Stream size : 56.2 KiB (0%)
Language : Russian
Default : No
Forced : No
Text #7
ID : 7
Format : UTF-8
Codec ID : S_TEXT/UTF8
Codec ID/Info : UTF-8 Plain Text
Duration : 1h 38mn
Bit rate : 50 bps
Count of elements : 990
Stream size : 36.1 KiB (0%)
Title : Full
Language : English
Default : No
Forced : No
Text #8
ID : 8
Format : UTF-8
Codec ID : S_TEXT/UTF8
Codec ID/Info : UTF-8 Plain Text
Duration : 1h 39mn
Bit rate : 53 bps
Count of elements : 1170
Stream size : 38.8 KiB (0%)
Title : SDH
Language : English
Default : No
Forced : No
Text #9
ID : 9
Format : UTF-8
Codec ID : S_TEXT/UTF8
Codec ID/Info : UTF-8 Plain Text
Duration : 1h 39mn
Bit rate : 60 bps
Count of elements : 1171
Stream size : 43.9 KiB (0%)
Title : SDH-Colored
Language : English
Default : No
Forced : No

лог

raw [info]: 1120x630p 1:1 @ 24000/1001 fps (cfr)
x264 [info]: using SAR=1/1
x264 [info]: using cpu capabilities: MMX2 SSE2Fast SSSE3 SSE4.2 AVX XOP FMA4 FMA3 LZCNT BMI1
x264 [info]: profile High, level 4.1
x264 [info]: frame I:1179 Avg QP:14.29 size: 78594
x264 [info]: frame P:31752 Avg QP:16.92 size: 21436
x264 [info]: frame B:116876 Avg QP:19.04 size: 6330
x264 [info]: consecutive B-frames: 2.5% 2.2% 6.6% 16.6% 15.8% 45.9% 5.0% 1.2% 1.0% 0.5% 0.6% 0.5% 0.6% 1.1%
x264 [info]: mb I I16..4: 8.0% 78.7% 13.3%
x264 [info]: mb P I16..4: 2.0% 9.3% 1.1% P16..4: 43.4% 20.6% 13.4% 0.2% 0.1% skip: 9.8%
x264 [info]: mb B I16..4: 0.1% 0.4% 0.1% B16..8: 37.5% 9.3% 1.9% direct: 3.9% skip:46.8% L0:46.6% L1:45.9% BI: 7.5%
x264 [info]: 8x8 transform intra:75.0% inter:65.6%
x264 [info]: coded y,uvDC,uvAC intra: 72.2% 73.3% 46.4% inter: 14.7% 17.6% 2.1%
x264 [info]: i16 v,h,dc,p: 37% 11% 5% 47%
x264 [info]: i8 v,h,dc,ddl,ddr,vr,hd,vl,hu: 17% 8% 10% 8% 12% 13% 11% 11% 10%
x264 [info]: i4 v,h,dc,ddl,ddr,vr,hd,vl,hu: 16% 7% 6% 10% 15% 14% 12% 10% 10%
x264 [info]: i8c dc,h,v,p: 42% 22% 21% 15%
x264 [info]: Weighted P-Frames: Y:7.1% UV:4.2%
x264 [info]: ref P L0: 43.3% 8.2% 19.7% 7.1% 6.3% 4.3% 4.2% 2.2% 2.3% 1.9% 0.3% 0.0%
x264 [info]: ref B L0: 63.4% 14.9% 8.0% 4.4% 3.2% 2.7% 2.2% 0.9% 0.4%
x264 [info]: ref B L1: 90.2% 9.8%
x264 [info]: kb/s:1937.33
x264 [total]: encoded 149807 frames, 7.47 fps, 1937.33 kb/s

Скриншоты


[Profile]  [PM] 
Display posts:    
Reply to topic

Current time is: 25-Jul 21:26

All times are UTC + 2



You cannot post new topics in this forum
You cannot reply to topics in this forum
You cannot edit your posts in this forum
You cannot delete your posts in this forum
You cannot vote in polls in this forum
You cannot attach files in this forum
You cannot download files in this forum