Очень голодные игры / The Starving Games (Джейсон Фридберг / Jason Friedberg, Аарон Зельцер / Aaron Seltzer) [2013, США, пародия, фантастика, комедия, приключения, BDRip] Dub + Sub Rus + Original Eng

Reply to topic
 
Author
Message

Satyr ®

Online

Gender: Unknown

Longevity: 12 years

Posts: 17867

Reputation: 56 [+] [-]

Satyr · Post 26-Feb-2017 00:10

[Quote] 

Очень голодные игры / The Starving Games
Страна: США
Жанр: пародия, фантастика, комедия, приключения
Год выпуска: 2013
Продолжительность: 01:22:16
Перевод: Профессиональный (дублированный)
Cубтитры: русские (blu-ray, notabenoid), английские (полные, SDH)
Оригинальная аудиодорожка: английский

Режиссер: Джейсон Фридберг / Jason Friedberg , Аарон Зельцер / Aaron Seltzer
В ролях: Майара Уолш, Брэнт Догерти, Коди Кристиан, Александрия ДеБерри, Ник Гомес, Лорен Боулз, Дидрих Бадер, Джозеф Авиль, Эштон Ли, Элис Форд
Описание: Храбрая девушка по имени Кантмисс Эвершот вызывается добровольцем для участия в «Играх за хавчик». Однако она даже предположить не могла, чем всё это закончится и кто будет сражаться вместе с ней.
Качество видео: BDRip
Формат видео: AVI
Видео: 720x384 (1.88:1), 23.976 fps, XviD build 73 ~2077 kbps avg, 0.31 bit/pixel
Аудио: 48 kHz, AC3 Dolby Digital, 3/2 (L,C,R,l,r) + LFE ch, ~448 kbps - дубляж
Аудио: 48 kHz, AC3 Dolby Digital, 3/2 (L,C,R,l,r) + LFE ch, ~448 kbps - оригинал (отдельно)
Формат субтитров: softsub (SRT)

MediaInfo

General
Complete name : H:\The.Starving.Games.2013.bdrip_[1.46]_[teko]\The.Starving.Games.2013.bdrip_[1.46].avi
Format : AVI
Format/Info : Audio Video Interleave
File size : 1.46 GiB
Duration : 1h 22mn
Overall bit rate : 2 535 Kbps
Writing application : VirtualDubMod 1.5.10.3 | www.virtualdub-fr.org || (build 2550/release)
Writing library : VirtualDubMod build 2550/release
Video
ID : 0
Format : MPEG-4 Visual
Format profile : Advanced Simple@L5
Format settings, BVOP : 2
Format settings, QPel : No
Format settings, GMC : No warppoints
Format settings, Matrix : Custom
Codec ID : XVID
Codec ID/Hint : XviD
Duration : 1h 22mn
Bit rate : 2 077 Kbps
Width : 720 pixels
Height : 384 pixels
Display aspect ratio : 1.85:1
Frame rate : 23.976 (23976/1000) fps
Color space : YUV
Chroma subsampling : 4:2:0
Bit depth : 8 bits
Scan type : Progressive
Compression mode : Lossy
Bits/(Pixel*Frame) : 0.313
Stream size : 1.19 GiB (82%)
Writing library : XviD 73
Audio
ID : 1
Format : AC-3
Format/Info : Audio Coding 3
Mode extension : CM (complete main)
Format settings, Endianness : Big
Codec ID : 2000
Duration : 1h 22mn
Bit rate mode : Constant
Bit rate : 448 Kbps
Channel(s) : 6 channels
Channel positions : Front: L C R, Side: L R, LFE
Sampling rate : 48.0 KHz
Frame rate : 31.250 fps (1536 spf)
Compression mode : Lossy
Stream size : 264 MiB (18%)
Alignment : Split accross interleaves
Interleave, duration : 42 ms (1.00 video frame)
Interleave, preload duratio : 500 ms
Релиз группы:
--
[Profile]  [PM] 
Display posts:    
Reply to topic

Current time is: 25-Jul 21:25

All times are UTC + 2



You cannot post new topics in this forum
You cannot reply to topics in this forum
You cannot edit your posts in this forum
You cannot delete your posts in this forum
You cannot vote in polls in this forum
You cannot attach files in this forum
You cannot download files in this forum