Людоеды / Балаган / Les ogres (Леа Фенер / Lea Fehner) [2015, Франция, драма, WEBRip] Sub Rus + Original Fre

Reply to topic
 
Author
Message

Satyr ®

Online

Gender: Unknown

Longevity: 12 years

Posts: 17867

Reputation: 56 [+] [-]

Satyr · Post 26-Feb-2017 00:10

[Quote] 

Людоеды / Балаган / Les ogres
Страна: Франция
Жанр: драма
Год выпуска: 2015
Продолжительность: 02:18:21
Перевод: Субтитры
Cубтитры: русские
Оригинальная аудиодорожка: французский

Режиссер: Леа Фенер / Lea Fehner
В ролях: Франсуа Фенер, Марийон Буварель, Марк Барбе, Адель Энель, Инес Фенер, Лола Дуэньяс, Филип Като, Кристель Леалье, Тьерри де Шунак, Натали Ювель
Описание: Они путешествуют из города в город, тягая за собой свои шатры и спектакль, уложенный в сумку. Они приносят в нашу жизнь грёзы и хаос. Это людоеды, великаны, сыгравшие неимоверное количество спектаклей и исколесившие километры дорог. Но неминуемое появление на свет ребенка и возвращение бывшей любовницы откроет старые раны, считавшиеся забытыми. Итак, пусть начнется праздник!

Качество видео: WEBRip
Формат видео: AVI
Видео: 704x288 (2.44:1), 25 fps, XviD build 73 ~1307 kbps avg, 0.26 bit/pixel
Аудио: 48 kHz, AC3 Dolby Digital, 2/0 (L,R) ch, ~192 kbps
Формат субтитров: softsub (SRT)

Фрагмент субтитров

398
00:32:57,680 --> 00:32:59,160
Привет, малыш!
399
00:33:06,280 --> 00:33:08,240
Мирей, тихонько!
400
00:33:10,800 --> 00:33:12,200
За малыша выпить надо!
401
00:33:13,080 --> 00:33:15,000
Господи, помоги нам и защити!
402
00:33:15,160 --> 00:33:17,440
Откуда такая напасть?
403
00:33:18,680 --> 00:33:20,560
Эй! Вас на сцене слышно!
404
00:33:21,040 --> 00:33:22,240
У нее мальчик!
405
00:33:22,880 --> 00:33:23,720
Замечательно!
406
00:33:25,560 --> 00:33:26,960
Назови его Барнабе.
407
00:33:30,840 --> 00:33:33,120
- Здорово играете!
- Спасибо.
408
00:33:40,480 --> 00:33:42,240
- Это хорошо.
- Что?
409
00:33:42,680 --> 00:33:44,560
Тебя ждет хорошая жизнь.
410
00:34:16,760 --> 00:34:20,440
Я влюблен, как юнец.
Объяснение в любви на коленях.
411
00:34:20,600 --> 00:34:22,600
Я люблю вас! Что на меня нашло?
412
00:34:22,760 --> 00:34:26,680
С завтрашнего дня начнут
начислять проценты. А тут вы!
413
00:34:26,840 --> 00:34:28,480
Я себе этого не прощу.
414
00:34:28,640 --> 00:34:30,800
Не подходите. Руки вверх!
415
00:34:30,960 --> 00:34:33,400
Я вас ненавижу. Вон...
416
00:34:44,920 --> 00:34:46,320
Свадьба!
417
00:35:04,760 --> 00:35:05,960
Все нормально.

MediaInfo

General
Complete name : H:\Les.ogres.2015.webrip_[1.46]_[teko]\Les.ogres.2015.webrip_[1.46].avi
Format : AVI
Format/Info : Audio Video Interleave
File size : 1.46 GiB
Duration : 2h 18mn
Overall bit rate : 1 509 Kbps
Writing application : VirtualDubMod 1.5.10.3 | www.virtualdub-fr.org || (build 2550/release)
Writing library : VirtualDubMod build 2550/release
Video
ID : 0
Format : MPEG-4 Visual
Format profile : Advanced Simple@L5
Format settings, BVOP : 2
Format settings, QPel : No
Format settings, GMC : No warppoints
Format settings, Matrix : Custom
Codec ID : XVID
Codec ID/Hint : XviD
Duration : 2h 18mn
Bit rate : 1 308 Kbps
Width : 704 pixels
Height : 288 pixels
Display aspect ratio : 2.40:1
Frame rate : 25.000 fps
Color space : YUV
Chroma subsampling : 4:2:0
Bit depth : 8 bits
Scan type : Progressive
Compression mode : Lossy
Bits/(Pixel*Frame) : 0.258
Stream size : 1.26 GiB (87%)
Writing library : XviD 73
Audio
ID : 1
Format : AC-3
Format/Info : Audio Coding 3
Mode extension : CM (complete main)
Format settings, Endianness : Big
Codec ID : 2000
Duration : 2h 18mn
Bit rate mode : Constant
Bit rate : 192 Kbps
Channel(s) : 2 channels
Channel positions : Front: L R
Sampling rate : 48.0 KHz
Frame rate : 31.250 fps (1536 spf)
Compression mode : Lossy
Stream size : 190 MiB (13%)
Alignment : Split accross interleaves
Interleave, duration : 40 ms (1.00 video frame)
Interleave, preload duratio : 500 ms
Релиз группы:
--
[Profile]  [PM] 
Display posts:    
Reply to topic

Current time is: 25-Jul 21:21

All times are UTC + 2



You cannot post new topics in this forum
You cannot reply to topics in this forum
You cannot edit your posts in this forum
You cannot delete your posts in this forum
You cannot vote in polls in this forum
You cannot attach files in this forum
You cannot download files in this forum