Держись от меня подальше / Stai lontana da me (Алессио Мария Федеричи / Аlessio Maria Federici) [2013, Италия, Комедия, DVDRip] VO Андрей Зверев

Reply to topic
 
Author
Message

Satyr ®

Online

Gender: Unknown

Longevity: 12 years

Posts: 17867

Reputation: 56 [+] [-]

Satyr · Post 26-Feb-2017 00:10

[Quote] 

Держись от меня подальше / Stai lontana da me
Страна: Италия
Жанр: Комедия
Год выпуска: 2013
Продолжительность: 01:22:09
Перевод: Одноголосый закадровый [BadCatStidio] VO Андрей Зверев
Cубтитры: нет
Режиссер: Алессио Мария Федеричи / Аlessio Maria Federici
В ролях: Энрико Бриньяно, Амбра Анджолини, Анна Гальена, Джампаоло Морелли,
Фабио Тройяно, Джорджия Карда, Симона Капаррини, Джорджо Коланджели,
Джанна Паола Скаффиди, Фабриция Сакки и другие.
Описание: Герой фильма - специалист по отношениям, помогающий парам обрести счастье и гармонию. Однако сам он не в силах устроить свою личную жизнь из-за давнего проклятия: каждая его девушка попадает в череду неприятностей и бросает его, не выдержав очередного несчастья. Но однажды он встретил женщину своей мечты и теперь отчаянно ищет способ решить эту проблему.
Доп. информация: Перевод: Lirik.
Сэмпл: https://yadi.sk/i/RDDlQ5aj3ERRN7
Качество видео: DVDRip
Формат видео: AVI
Видео: xvid, 720х304, 24,000 кадра/сек, 1706 Кбит/сек
Аудио: mp3, 128 Кбит/сек, 2 канала, 44,1 КГц

MediaInfo

Общее
Полное имя : D:\ОДНОГОЛОС\Stai.Lontana.Da.Me\Держись от меня подальше_BadCatstudio.avi
Формат : AVI
Формат/Информация : Audio Video Interleave
Профиль формата : OpenDML
Размер файла : 1,11 Гбайт
Продолжительность : 1 ч. 25 м.
Общий поток : 1849 Кбит/сек
Программа кодирования : Lavf52.93.0
Видео
Идентификатор : 0
Формат : xvid
Идентификатор кодека : xvid
Продолжительность : 1 ч. 25 м.
Битрейт : 1706 Кбит/сек
Ширина : 720 пикселей
Высота : 304 пикселя
Соотношение сторон : 2,35:1
Частота кадров : 24,000 кадра/сек
Бит/(Пиксели*Кадры) : 0.325
Размер потока : 1,02 Гбайт (92%)
Аудио
Идентификатор : 1
Формат : MPEG Audio
Версия формата : Version 1
Профиль формата : Layer 3
Режим : Joint stereo
Расширение режима : MS Stereo
Идентификатор кодека : 55
Идентификатор кодека/Подсказка : MP3
Продолжительность : 1 ч. 25 м.
Вид битрейта : Постоянный
Битрейт : 128 Кбит/сек
Каналы : 2 канала
Частота : 44,1 КГц
Метод сжатия : С потерями
Размер потока : 78,3 Мбайт (7%)
Выравнивание : Соединение по промежуткам
Продолжительность промежутка : 26 мс. (0,63 видеокадр)
Библиотека кодирования : LAME3.98.4

Скриншот c названием фильма

Скриншоты

[Profile]  [PM] 
Display posts:    
Reply to topic

Current time is: 25-Jul 21:21

All times are UTC + 2



You cannot post new topics in this forum
You cannot reply to topics in this forum
You cannot edit your posts in this forum
You cannot delete your posts in this forum
You cannot vote in polls in this forum
You cannot attach files in this forum
You cannot download files in this forum