Дорога, которую он выбирает / Сегодня я хочу возвращаться один / Hoje Eu Quero Voltar Sozinho (Даниэль Рибейро / Daniel Ribeiro) [2014, Бразилия, драма, мелодрама, WEB-DLRip] VO (Кирилл Иванов) + Sub Rus, Eng + Original Por

Reply to topic
 
Author
Message

Satyr ®

Online

Gender: Unknown

Longevity: 12 years

Posts: 17867

Reputation: 56 [+] [-]

Satyr · Post 26-Feb-2017 00:10

[Quote] 

Дорога, которую он выбирает / Сегодня я хочу возвращаться один / Hoje Eu Quero Voltar Sozinho
Страна: Бразилия
Жанр: драма, мелодрама
Год выпуска: 2014
Продолжительность: 01:36:15
Перевод: Одноголосый закадровый - Кирилл Иванов
Cубтитры: русские (БлогБастер), английские
Оригинальная аудиодорожка: португальский

Режиссер: Даниэль Рибейро / Daniel Ribeiro
В ролях: Гильерме Лобо, Фабио Ауди, Тесс Аморим, Виктор Вилгеирас, Сэлма Эгреи, Изабела Гуаско, Наруна Коста, Хулио Мачадо, Люсия Романо
Описание: Леонардо - слепой подросток, тщетно пытающийся выйти из-под щепетильной опеки любящей матери. К разочарованию лучшей подруги Джованны, он собирается уехать учиться за границу. Но с приходом в их класс новичка Габриэля жизнь Леонардо меняется…
Качество видео: WEB-DLRip
Формат видео: AVI
Видео: 704x288 (2.44:1), 23.976 fps, XviD build 73 ~1761 kbps avg, 0.39 bit/pixel
Аудио: 48 kHz, AC3 Dolby Digital, 3/2 (L,C,R,l,r) + LFE ch, ~384 kbps - одноголосый
Аудио: 48 kHz, AC3 Dolby Digital, 3/2 (L,C,R,l,r) + LFE ch, ~384 kbps - оригинал (отдельно)
Формат субтитров: softsub (SRT)

MediaInfo

General
Complete name : H:\Hoje.Eu.Quero.Voltar.Sozinho.2014.web-dlrip_[1.46]_[teko]\Hoje.Eu.Quero.Voltar.Sozinho.2014.web-dlrip_[1.46].avi
Format : AVI
Format/Info : Audio Video Interleave
File size : 1.45 GiB
Duration : 1h 36mn
Overall bit rate : 2 155 Kbps
Writing application : VirtualDubMod 1.5.10.3 | www.virtualdub-fr.org || (build 2550/release)
Writing library : VirtualDubMod build 2550/release
Video
ID : 0
Format : MPEG-4 Visual
Format profile : Advanced Simple@L5
Format settings, BVOP : 2
Format settings, QPel : No
Format settings, GMC : No warppoints
Format settings, Matrix : Custom
Codec ID : XVID
Codec ID/Hint : XviD
Duration : 1h 36mn
Bit rate : 1 761 Kbps
Width : 704 pixels
Height : 288 pixels
Display aspect ratio : 2.40:1
Frame rate : 23.976 (23976/1000) fps
Color space : YUV
Chroma subsampling : 4:2:0
Bit depth : 8 bits
Scan type : Progressive
Compression mode : Lossy
Bits/(Pixel*Frame) : 0.362
Stream size : 1.18 GiB (82%)
Writing library : XviD 73
Audio
ID : 1
Format : AC-3
Format/Info : Audio Coding 3
Mode extension : CM (complete main)
Format settings, Endianness : Big
Codec ID : 2000
Duration : 1h 36mn
Bit rate mode : Constant
Bit rate : 384 Kbps
Channel(s) : 6 channels
Channel positions : Front: L C R, Side: L R, LFE
Sampling rate : 48.0 KHz
Frame rate : 31.250 fps (1536 spf)
Compression mode : Lossy
Stream size : 264 MiB (18%)
Alignment : Split accross interleaves
Interleave, duration : 42 ms (1.00 video frame)
Interleave, preload duratio : 500 ms
Релиз группы:
--
[Profile]  [PM] 
Display posts:    
Reply to topic

Current time is: 25-Jul 21:20

All times are UTC + 2



You cannot post new topics in this forum
You cannot reply to topics in this forum
You cannot edit your posts in this forum
You cannot delete your posts in this forum
You cannot vote in polls in this forum
You cannot attach files in this forum
You cannot download files in this forum